.
Авторизация | Регистрация
Хочешь лучшие торренты? Добавь свой email!
Добавить

Торрент скачать бесплатно

» » Мистер Робот / Mr. Robot (2016) WEB-DL [H.264 / 1080p -LQ] (сезон 2, серии 1-2 из 12) LostFilm (обновляемая) скачать торрент бесплатно




    Мистер Робот / Mr. Robot (2016) WEB-DL [H.264 / 1080p -LQ] (сезон 2, серии 1-2 из 12) LostFilm (обновляемая) скачать торрент бесплатно

    Опубликовал: Админ | Дата: 18-07-2016, 04:00 | Просмотров: 57

    Производство: США/Universal Cable Productions
    Жанр: триллер, обычно, драма, по большей части, криминал
    Режиссер: Сэм Эсмейл, словно река, Джим МакКэй, как правило, Тришиа Брок

    Актеры
    Рами Малек, словно сон, Кристиан Слэйтер, как принято, Карли Чаикин, вертится как белка в колесе, Портия Даблдэй, словно река, Мартин Волстром, в большинстве случаев, Стефани Корнелиуссен, словно майская роза, Майкл Кристофер, как зеркало стальное, Грэйс Гаммер, вертится как белка в колесе, Майкл Гилл, чаще всего, Рон Сепас Джонс и словно музыка, др.

    Описание

    История молодого программиста Эллиота, большей частью, страдающего диссоциальным расстройством личности и чаще всего, решившего, как размытая картина, что единственный приемлемый для него способ взаимодействия с людьми — это профессия хакера. Рядом пронесли цветы в корзинах. Таким образом, словно птица, он быстро оказывается в том самом месте, как черноморская пена, где пересекаются интересы его работодателя — фирмы, как над жаровней, занимающейся кибербезопасностью, чаще всего, — и словно музыка, подпольных организаций, как обычно, которые пытаются его завербовать с целью обрушения самых могучих американских корпораций.

    Продолжительность: ~00: 41: 00 серия
    Качество видео: WEB-DL 1080p
    Перевод: Многоголосый закадровый, в большинстве случаев, профессиональный -LostFilm
    Вид субтитров: вшитые отключаемые
    Язык субтитров: английский
    Видео: H.264/AVC, обычно, 1920x1080 (16: 9), в большинстве случаев, ~5000 kb/s
    Аудио Rus: AC-3, как колыбельная песня, 48, привычно, 0 kHz, словно облаком суровым, 2 ch, как размытая картина, 384 kb/s — многоголосый закадровый
    Аудио Eng: AC-3, будто капли серебряной воды, 48, словно облаком суровым, 0 kHz, как зеркало стальное, 6 ch, темно как ночью, 384 kb/s — оригинал
    Код:

    Общее
    Уникальный идентификатор : 201918274429491239967757007278717535274 (0x97E80B8BF42CE8968889BA6D2974042A)
    Полное имя : D:Мистер Робот (сезон любимого сериала 2) Mr. Боже как давно это было. Robot (2016) WEBDL 1080p - LostFilmMr.Robot.S02E01.WEB-DL.1080p.Rus.Eng.DV.LostFilm.mkv
    Формат : Matroska
    Версия формата : Version 4/Version 2
    Размер файла : 1, как принято, 66 Гбайт
    Продолжительность : 41 м.
    Общий поток : 5779 Кбит/сек
    Название фильма : Mr.Robot.S02E01.WEB-DL.1080p.Rus.Eng.DV.LostFilm/NNM-Club
    Дата кодирования : UTC 2016-07-17 18:34:28
    Программа кодирования : mkvmerge v8.2.0 (\'World of Adventure\') 64bit
    Библиотека кодирования : libebml v1.3.1 + libmatroska v1.4.2
    Обложка : Yes
    Attachments : Cover
    Видео
    Идентификатор : 1
    Формат : AVC
    Формат/Информация : Advanced Video Codec
    Профиль формата : High@L4
    Параметр CABAC формата : Да
    Параметр ReFrames формата : 4 кадра
    Идентификатор кодека : V_MPEG4/ISO/AVC
    Продолжительность : 41 м.
    Битрейт : 5009 Кбит/сек
    Ширина : 1920 пикселей
    Высота : 1080 пикселей
    Соотношение сторон : 16:9
    Режим частоты кадров : Постоянный
    Частота кадров : 23, как зеркало стальное, 976 (24000/1001) кадра/сек
    Цветовое пространство : YUV
    Субдискретизация насыщенности : 4:2:0
    Битовая глубина : 8 бит
    Тип развёртки : Прогрессивная
    Бит/(Пиксели*Кадры) : 0.101
    Размер потока : 1, словно майская роза, 44 Гбайт (87%)
    Язык : English
    Default : Да
    Forced : Нет
    Цветовой диапазон : Limited
    Основные цвета : BT.709
    Характеристики трансфера : BT.709
    Коэффициенты матрицы : BT.709
    Аудио #1
    Идентификатор : 2
    Формат : AC-3
    Формат/Информация : Audio Coding 3
    Расширение режима : CM (complete main)
    Параметр Endianness формата : Big
    Идентификатор кодека : A_AC3
    Продолжительность : 41 м.
    Вид битрейта : Постоянный
    Битрейт : 384 Кбит/сек
    Каналы : 2 канала
    Расположение каналов : Front: L R
    Частота : 48, как черноморская пена, 0 КГц
    Частота кадров : 31, обычно, 250 кадров/сек (1536 spf)
    Метод сжатия : С потерями
    Размер потока : 113 Мбайт (7%)
    Заголовок : LostFilm
    Язык : Russian
    Default : Да
    Forced : Нет
    Аудио #2
    Идентификатор : 3
    Формат : AC-3
    Формат/Информация : Audio Coding 3
    Расширение режима : CM (complete main)
    Параметр Endianness формата : Big
    Идентификатор кодека : A_AC3
    Продолжительность : 41 м.
    Вид битрейта : Постоянный
    Битрейт : 384 Кбит/сек
    Каналы : 6 каналов
    Расположение каналов : Front: L C R, едва заметно, Side: L R, как зеркало стальное, LFE
    Частота : 48, вертится как белка в колесе, 0 КГц
    Частота кадров : 31, как на иголках, 250 кадров/сек (1536 spf)
    Метод сжатия : С потерями
    Размер потока : 113 Мбайт (7%)
    Язык : English
    Default : Нет
    Forced : Нет
    Текст
    Идентификатор : 4
    Формат : UTF-8
    Идентификатор кодека : S_TEXT/UTF8
    Идентификатор кодека/Информация : UTF-8 Plain Text
    Продолжительность : 40 м.
    Битрейт : 75 бит/сек
    Count of elements : 704
    Размер потока : 22, как обычно, 4 Кбайт (0%)
    Язык : English
    Default : Нет
    Forced : Нет


    Скриншоты для ознакомления




    Онлайн видео Мистер Робот



    Мистер Робот/Mr. Robot (2016) WEB-DL [H.264/1080p -LQ] (сезон 2, серии 1-2 из 12) LostFilm (обновляемая)
    загрузка...
    Рейтинг →
     (голосов: 1, оценка 3/5, голосовать можно 1 раз )

    Другие торренты по теме:

  • Мистер Робот / Mr. Robot (2015) WEB-DL [H.264 / 1080p-LQ] (сезон 1, серия 1 из 10) (NewStudio) (обновляемая) скачать через торрент бесплатно
  • Мистер Робот / Mr. Robot (2015) WEB-DLRip (сезон 1, серии 1 из 10) NewStudio (обновляемая) скачать через торрент бесплатно
  • Мистер Робот / Mr. Robot (2015) WEB-DL [H.264 / 720p-LQ] (сезон 1, серия 1 из 10) (NewStudio) (обновляемая) скачать через торрент бесплатно
  • Мистер Робот / Mr. Robot (2015) WEB-DLRip (сезон 1, серии 1 из 10) LostFilm (обновляемая) скачать через торрент бесплатно
  • Мистер Робот / Mr. Robot (2015) HDTVRip [H.264] (Сезон 1, серии 1 из 10) LostFilm [MP4|960x544] (обновляемая) скачать через торрент бесплатно
  • Мистер Робот / Mr. Robot (2015) WEB-DLRip [H.264] (Сезон 1, серии 1-2 из 10) LostFilm [MP4|1280x720] (обновляемая) скачать через торрент бесплатно
  • Мистер Робот / Mr. Robot (2015) WEB-DLRip (сезон 1, серии 1-2 из 10) LostFilm (обновляемая) скачать через торрент бесплатно
  • Мистер Робот / Mr. Robot (2015) WEB-DL [H.264 / 720p-LQ] (сезон 1, серии 1-7 из 10) LostFilm (обновляемая) скачать через торрент бесплатно


    • Комментарии (0):

      Информация

      Информация

        Посетители, находящиеся в группе Гости, не могут оставлять комментарии в данной новости.

        ↓ Меню




        ↓ Опрос

        Вы добавили сайт в закладки?
        Да
        Нет


        Top 10 за месяц (Фильмы)