.
Авторизация | Регистрация
Хочешь лучшие торренты? Добавь свой email!
Добавить

Торрент скачать бесплатно

» » Сыщики (2001) WEBRip (Сезон 1, серии 1-10 из 10) торрент скачать бесплатно




    Сыщики (2001) WEBRip (Сезон 1, серии 1-10 из 10) торрент скачать бесплатно

    Опубликовал: Админ | Дата: 18-07-2016, 04:00 | Просмотров: 57

    Производство: Россия Кинокомпания Киномост при участии Еврофильм-Сервис
    Жанр: Детектив, Криминал
    Режиссер: Владимир Краснопольский, Валерий Усков

    Актеры
    Борис Щербаков, Сергей Степанченко, Александр Мохов, Леонид Куравлёв, Спартак Мишулин, Леван Мсхиладзе, Борис Химичев, Анатолий Калмыков, Сергей Бадичкин, Роман Тындык и др...

    Описание

    Сыщики - это современные детективные истории, где постоянными героями являются опытный профессионал Колапушин и его ученик и напарник Немигайло.
    Каждая из историй - это рассказ о хитроумно задуманном и ловко осуществленном преступлении, о загадке, которую сыщикам необходимо раскрутить в течение 24-х часов среди новый обстоятельств и действующих лиц. Опыт, сообразительность, интуиция в сочетании с юмором и нередко возникающими комедийными ситуациями, помогают им принимать неординарные решения…

    Возраст: 16+ (зрителям, достигшим 16 лет)
    Продолжительность: ~ 00: 50: 00 серия
    Качество видео: WEBRip
    Видео: Xvid, 720x540 (4: 3), ~994 Kbps
    Аудио: AC3, 2 ch, 192 kbps, CBR
    Код:

    Общее
    Полное имя : D:Мои фильмыSywiki_S1_1-10iz10_2001_XviD_WEBRip1.Знак Иуды.avi
    Формат : AVI
    Формат/Информация : Audio Video Interleave
    Размер файла : 446 Мбайт
    Продолжительность : 52 м.
    Общий поток : 1196 Кбит/сек
    Библиотека кодирования : VirtualDub build 35491/release
    Видео
    Идентификатор : 0
    Формат : MPEG-4 Visual
    Профиль формата : Advanced Simple@L5
    Параметр BVOP формата : 2
    Параметр QPel формата : Нет
    Параметр GMC формата : Без точки перехода
    Параметр матрицы формата : Default (H.263)
    Идентификатор кодека : XVID
    Идентификатор кодека/Подсказка : XviD
    Продолжительность : 52 м.
    Битрейт : 994 Кбит/сек
    Ширина : 720 пикселей
    Высота : 540 пикселей
    Соотношение сторон : 4:3
    Частота кадров : 25, 000 кадров/сек
    Цветовое пространство : YUV
    Субдискретизация насыщенности : 4:2:0
    Битовая глубина : 8 бит
    Тип развёртки : Прогрессивная
    Метод сжатия : С потерями
    Бит/(Пиксели*Кадры) : 0.102
    Размер потока : 371 Мбайт (83%)
    Библиотека кодирования : XviD 67
    Аудио
    Идентификатор : 1
    Формат : AC-3
    Формат/Информация : Audio Coding 3
    Расширение режима : CM (complete main)
    Параметр Endianness формата : Big
    Идентификатор кодека : 2000
    Продолжительность : 52 м.
    Вид битрейта : Постоянный
    Битрейт : 192 Кбит/сек
    Каналы : 2 канала
    Расположение каналов : Front: L R
    Частота : 48, 0 КГц
    Частота кадров : 31, 250 кадров/сек (1536 spf)
    Метод сжатия : С потерями
    Размер потока : 71, 6 Мбайт (16%)
    Выравнивание : Разделение по промежуткам
    Продолжительность промежутка : 40 мс. (1, 00 видеокадр)
    Время предзагрузки промежутка : 500 мс.


    Скриншоты для ознакомления




    Онлайн видео Сыщики (2001) WEBRip (Сезон 1, серии 1



    Сыщики (2001) WEBRip (Сезон 1, серии 1-10 из 10)
    загрузка...
    Рейтинг →
     (голосов: 1, оценка 4/5, голосовать можно 1 раз )

    Другие торренты по теме:

  • Частные сыщики / The Private Eyes (1980) DVDRip [H.264] [EN / EN Sub] скачать через торрент бесплатно
  • Книжная серия | Великие сыщики [80 книг] (2012-2015) [FB2] скачать через торрент бесплатно
  • Книжная серия | Великие сыщики [91 книга] (2012-2015) [FB2] скачать через торрент бесплатно
  • Частные сыщики / Private Eyes (2016) WEB-DLRip [H.264 / 1080p-LQ] (сезон 1, серии 1-7 из 10) BaibaKo (обновляемая)
  • Знаменитые сыщики. Нат Пинкертон (2013) [MP3]
  • Максим Дубровин | Сыщики. Город Озо [Проект "Этногенез"] (2017) [MP3]


    • Комментарии (0):

      Информация

      Информация

        Посетители, находящиеся в группе Гости, не могут оставлять комментарии в данной новости.

        ↓ Меню




        ↓ Опрос

        Вы добавили сайт в закладки?
        Да
        Нет


        Top 10 за месяц (Фильмы)