.
Авторизация | Регистрация
Хочешь лучшие торренты? Добавь свой email!
Добавить

Торрент скачать бесплатно

» » Гражданин начальник (2001) WEBRip (сезон 1, серии 1-15 из 15) торрент скачать бесплатно




    Гражданин начальник (2001) WEBRip (сезон 1, серии 1-15 из 15) торрент скачать бесплатно

    Опубликовал: Админ | Дата: 18-07-2016, 04:00 | Просмотров: 84

    Производство: Россия Кинокомпания КиноМост
    Жанр: драма, криминал
    Режиссер: Николай Досталь

    Актеры
    Юрий Степанов, Егор Бероев, Роман Мадянов, Валерий Афанасьев, Виктор Супрун, Дмитрий Назаров, Владимир Топцов, Александр Бавтриков, Дина Корзун, Иван Рыжиков и др.

    Описание

    Действие происходит в наше время: увлекательная криминальная интрига разворачивается в одном из крупных областных городов. В центре ее оказывается следователь прокуратуры Пафнутьев, вынужденный по роду службы столкнуться не только с преступными элементами города, но и со всем официальным городским руководством.
    Чтобы победить организованную мощную структуру практически в одиночку, следователю приходится проявлять незаурядную смекалку и хитрость. Нередко прибегая к нестандартным методам.

    Продолжительность: ~ 00: 46: 00 серия
    Качество видео: WEBRip
    Видео: Xvid, 720x540 (4: 3), ~1511 Kbps
    Аудио: AC3, 2 ch, 192 kbps, CBR
    Код:

    Общее
    Полное имя : D:Мои фильмыGrazhdanin_nachal\'nik_S1_1-15iz15_2001_XviD_WEBRipGrazhdanin_nachal\'nik_S1_01_WEBRip.avi
    Формат : AVI
    Формат/Информация : Audio Video Interleave
    Размер файла : 555 Мбайт
    Продолжительность : 45 м.
    Общий поток : 1713 Кбит/сек
    Библиотека кодирования : VirtualDub build 35491/release
    Видео
    Идентификатор : 0
    Формат : MPEG-4 Visual
    Профиль формата : Advanced Simple@L5
    Параметр BVOP формата : 2
    Параметр QPel формата : Нет
    Параметр GMC формата : Без точки перехода
    Параметр матрицы формата : Default (H.263)
    Идентификатор кодека : XVID
    Идентификатор кодека/Подсказка : XviD
    Продолжительность : 45 м.
    Битрейт : 1511 Кбит/сек
    Ширина : 720 пикселей
    Высота : 540 пикселей
    Соотношение сторон : 4:3
    Частота кадров : 25, 000 кадров/сек
    Цветовое пространство : YUV
    Субдискретизация насыщенности : 4:2:0
    Битовая глубина : 8 бит
    Тип развёртки : Прогрессивная
    Метод сжатия : С потерями
    Бит/(Пиксели*Кадры) : 0.155
    Размер потока : 490 Мбайт (88%)
    Библиотека кодирования : XviD 67
    Аудио
    Идентификатор : 1
    Формат : AC-3
    Формат/Информация : Audio Coding 3
    Расширение режима : CM (complete main)
    Параметр Endianness формата : Big
    Идентификатор кодека : 2000
    Продолжительность : 45 м.
    Вид битрейта : Постоянный
    Битрейт : 192 Кбит/сек
    Каналы : 2 канала
    Расположение каналов : Front: L R
    Частота : 48, 0 КГц
    Частота кадров : 31, 250 кадров/сек (1536 spf)
    Метод сжатия : С потерями
    Размер потока : 62, 3 Мбайт (11%)
    Выравнивание : Соединение по промежуткам
    Продолжительность промежутка : 40 мс. (1, 00 видеокадр)
    Время предзагрузки промежутка : 512 мс.


    Скриншоты для ознакомления




    Онлайн видео Гражданин начальник (2001) WEBRip (сезон любимого сериала 1, серии 1



    Гражданин начальник (2001) WEBRip (сезон 1, серии 1-15 из 15)
    загрузка...
    Рейтинг →
     (голосов: 1, оценка 4/5, голосовать можно 1 раз )

    Другие торренты по теме:

  • Гражданин начальник (2001) DVDRip [H.264] (серии 1-15 из 15) скачать через торрент бесплатно
  • Гражданин начальник 2 (12 серий из 12) (2005) DVDRip
  • Гражданин начальник (2001) WEBRip (сезон 1, серии 1-15 из 15)
  • Гражданин начальник 3 (12 серий из 12) (2006) DVDRip
  • Гражданин начальник (2001 -2007) SATRip (3 Сезона, 39 серий)


    • Комментарии (0):

      Информация

      Информация

        Посетители, находящиеся в группе Гости, не могут оставлять комментарии в данной новости.

        ↓ Меню




        ↓ Опрос

        Вы добавили сайт в закладки?
        Да
        Нет


        Top 10 за месяц (Фильмы)