.
Авторизация | Регистрация
Хочешь лучшие торренты? Добавь свой email!
Добавить

Торрент скачать бесплатно

» » Мистер Робот / Mr. Robot (2015) BDRemux [H.264 / 1080p] (сезон 1, дополнительные материалы) [EN / EN Sub] торрент скачать бесплатно




    Мистер Робот / Mr. Robot (2015) BDRemux [H.264 / 1080p] (сезон 1, дополнительные материалы) [EN / EN Sub] торрент скачать бесплатно

    Опубликовал: Админ | Дата: 18-07-2016, 04:00 | Просмотров: 61

    Производство: США/Universal Cable Productions
    Жанр: триллер, драма, криминал
    Режиссер: Сэм Эсмейл, Джим МакКэй, Тришиа Брок

    Актеры
    Рами Малек, Брюс Олтмен, Кристиан Слэйтер, Майкл Бушеми, Карли Чаикин, Самрат Чакрабарти, Портия Даблдэй и др.

    Описание

    История молодого программиста Эллиота, страдающего социофобией и решившего, что единственный приемлемый для него способ взаимодействия с людьми — это профессия хакера. Самое интересное в это истории, что об этом Человек паук ничего не знал. Таким образом, он быстро оказывается в том самом месте, где пересекаются интересы его работодателя — фирмы, занимающейся кибербезопасностью, — и подпольных организаций, которые пытаются его завербовать с целью обрушения самых могучих американских корпораций.

    Продолжительность: 3x ~00: 02: 00 + 2x 00: 12: 00 + 00: 05: 16
    Качество видео: BDRemux
    Перевод: отсутствует
    Язык озвучки: английский
    Вид субтитров: вшитые отключаемые
    Язык субтитров: английский
    Видео: AVC/H.264, 1920x1080 (16: 9), ~13 mb/s
    Аудио Eng: AC-3, 48, 0 kHz, 2 ch, 192 kb/s, CBR — оригинал
    Код:

    General
    Unique ID : 250954261962581937102268094155490363829 (0xBCCC08642C897FF481E46FECC6D489B5)
    Complete name : G:Mr. RobotMr. Robot S01 Extras BDRemux 1080p Eng Subs by Stiles RG SerialSMr. Robot S01 Gag Reel BDRemux 1080p Eng Subs by Stiles RG SerialS.mkv
    Format : Matroska
    Format version : Version 4/Version 2
    File size : 533 MiB
    Duration : 5mn 16s
    Overall bit rate mode : Variable
    Overall bit rate : 14.1 Mbps
    Movie name : Mr. Robot S01 Gag Reel BDRemux 1080p Eng Subs by Stiles RG SerialS
    Encoded date : UTC 2016-07-11 11:20:56
    Writing application : mkvmerge v7.9.0 (\'Birds\') 64bit
    Writing library : libebml v1.3.1 + libmatroska v1.4.2
    DURATION : 00:05:04.137000000
    NUMBER_OF_FRAMES : 196
    NUMBER_OF_BYTES : 617602
    _STATISTICS_WRITING_APP : mkvmerge v7.9.0 (\'Birds\') 64bit
    _STATISTICS_WRITING_DATE_UT : 2016-07-11 11:20:56
    _STATISTICS_TAGS : BPS DURATION NUMBER_OF_FRAMES NUMBER_OF_BYTES
    Video
    ID : 1
    Format : AVC
    Format/Info : Advanced Video Codec
    Format profile :High@L4.1
    Format settings, CABAC : Yes
    Format settings, ReFrames : 4 frames
    Format settings, GOP : M=3, N=12
    Codec ID : V_MPEG4/ISO/AVC
    Duration : 5mn 16s
    Bit rate mode : Variable
    Bit rate : 13.6 Mbps
    Maximum bit rate : 35.0 Mbps
    Width : 1 920 pixels
    Height : 1 080 pixels
    Display aspect ratio : 16:9
    Frame rate mode : Constant
    Frame rate : 23.976 fps
    Color space : YUV
    Chroma subsampling : 4:2:0
    Bit depth : 8 bits
    Scan type : Progressive
    Bits/(Pixel*Frame) : 0.274
    Stream size : 515 MiB (97%)
    Language : English
    Default : Yes
    Forced : No
    Audio
    ID : 2
    Format : AC-3
    Format/Info : Audio Coding 3
    Mode extension : CM (complete main)
    Format settings, Endianness : Big
    Codec ID : A_AC3
    Duration : 5mn 16s
    Bit rate mode : Constant
    Bit rate : 192 Kbps
    Channel(s) : 2 channels
    Channel positions : Front: L R
    Sampling rate : 48.0 KHz
    Compression mode : Lossy
    Stream size : 7.25 MiB (1%)
    Language : English
    Default : Yes
    Forced : No
    Text
    ID : 3
    Format : PGS
    Muxing mode : zlib
    Codec ID : S_HDMV/PGS
    Codec ID/Info : Picture based subtitle format used on BDs/HD-DVDs
    Language : English
    Default : Yes
    Forced : No


    Скриншоты для ознакомления




    Онлайн видео Мистер Робот



    Мистер Робот/Mr. Robot (2015) BDRemux [H.264/1080p] (сезон 1, дополнительные материалы) [EN/EN Sub]
    загрузка...
    Рейтинг →
     (голосов: 1, оценка 3/5, голосовать можно 1 раз )

    Другие торренты по теме:

  • Мистер Робот / Mr. Robot (2015) WEB-DL [H.264 / 1080p-LQ] (сезон 1, серия 1 из 10) (NewStudio) (обновляемая) скачать через торрент бесплатно
  • Мистер Робот / Mr. Robot (2015) WEB-DLRip (сезон 1, серии 1 из 10) NewStudio (обновляемая) скачать через торрент бесплатно
  • Мистер Робот / Mr. Robot (2015) WEB-DL [H.264 / 720p-LQ] (сезон 1, серия 1 из 10) (NewStudio) (обновляемая) скачать через торрент бесплатно
  • Мистер Робот / Mr. Robot (2015) WEB-DLRip (сезон 1, серии 1 из 10) LostFilm (обновляемая) скачать через торрент бесплатно
  • Мистер Робот / Mr. Robot (2015) HDTVRip [H.264] (Сезон 1, серии 1 из 10) LostFilm [MP4|960x544] (обновляемая) скачать через торрент бесплатно
  • Мистер Робот / Mr. Robot (2015) WEB-DLRip [H.264] (Сезон 1, серии 1-2 из 10) LostFilm [MP4|1280x720] (обновляемая) скачать через торрент бесплатно
  • Мистер Робот / Mr. Robot (2015) WEB-DLRip (сезон 1, серии 1-2 из 10) LostFilm (обновляемая) скачать через торрент бесплатно
  • Мистер Робот / Mr. Robot (2015) WEB-DL [H.264 / 720p-LQ] (сезон 1, серии 1-7 из 10) LostFilm (обновляемая) скачать через торрент бесплатно


    • Комментарии (0):

      Информация

      Информация

        Посетители, находящиеся в группе Гости, не могут оставлять комментарии в данной новости.

        ↓ Меню




        ↓ Опрос

        Вы добавили сайт в закладки?
        Да
        Нет


        Top 10 за месяц (Фильмы)