.
Авторизация | Регистрация
Хочешь лучшие торренты? Добавь свой email!
Добавить

Торрент скачать бесплатно

» » Пальмы в снегу / Palmeras en la nieve (2015) HDRip [H.264] торрент скачать бесплатно




    Пальмы в снегу / Palmeras en la nieve (2015) HDRip [H.264] торрент скачать бесплатно

    Опубликовал: Админ | Дата: 17-07-2016, 04:04 | Просмотров: 57

    Производство: Испания, Nostromo Pictures, Atresmedia Cine, Dynamo, Telefonica Studios, Warner Bros. Pictures International
    Жанр: Драма, Мелодрама
    Режиссер: Фернандо Гонзалез Молина

    Актеры
    Марио Касас, Лайа Коста, Адриана Угарте, Макарена Гарсия, Ален Эрнандес, Берта Васкес, Джедже Апали, Даниэль Грао, Фернандо Кайо, Сельсо Бугальо, Петра Мартинес, Луис Кальехо, Хосе Мануэль Ривера и другие.

    Описание

    Это история о большой любви, связи времен и поколений. Красавица Кларенс живет в холодных горах. Однажды она находит загадочное письмо и решает узнать правду о прошлом своего отца. Девушка отправляется на остров Фернандо-По и как будто попадает в рай. Она идет по следам семейных тайн, где есть и запретная любовь, и предательство, и великие события, ставшие частью мировой истории.

    Дата мировой премьеры: 9 декабря 2015
    Дата российской премьеры: 7 апреля 2016, Capella Film

    Продолжительность: 02: 44: 02
    Качество видео: HDRip (H.264)
    Перевод: Профессиональный (многоголосый, закадровый) (iTunes)
    Язык субтитров: Английский
    Вид субтитров: Вшитые отключаемые
    Видео: AVC/H.264, 1024x428, (2.40: 1), 1 888 kbps, 23, 976 fps
    Аудио: AC3, 6 ch, 384 kbps - Русский
    Аудио: AC3, 6 ch, 448 kbps - Испанский
    Код:

    General
    Unique ID : 220478818661419334591965865030061299857 (0xA5DEAD078A78C1219CC75D2691629891)
    Complete name : H:Palm.Trees.in.the.Snow.2015.HDRip.AVC.by.R.G.Resident.mkv
    Format : Matroska
    Format version : Version 4/Version 2
    File size : 3.11 GiB
    Duration : 2h 44mn
    Overall bit rate : 2 711 Kbps
    Movie name : Palmeras en la nieve (2015) HDRip-AVC by R.G. Resident
    Encoded date : UTC 2016-07-12 19:32:54
    Writing application : mkvmerge v9.2.0 (\'Photograph\') 64bit
    Writing library : libebml v1.3.3 + libmatroska v1.4.4
    DURATION : 02:43:11.904000000
    NUMBER_OF_FRAMES : 305997
    NUMBER_OF_BYTES : 470011392
    _STATISTICS_WRITING_APP : mkvmerge v9.2.0 (\'Photograph\') 64bit
    _STATISTICS_WRITING_DATE_UTC : 2016-07-12 19:32:54
    _STATISTICS_TAGS : BPS DURATION NUMBER_OF_FRAMES NUMBER_OF_BYTES
    Video
    ID : 1
    Format : AVC
    Format/Info : Advanced Video Codec
    Format profile :High@L4.1
    Format settings, CABAC : Yes
    Format settings, ReFrames : 9 frames
    Codec ID : V_MPEG4/ISO/AVC
    Duration : 2h 44mn
    Bit rate : 1 888 Kbps
    Width : 1 024 pixels
    Height : 428 pixels
    Display aspect ratio : 2.40:1
    Frame rate : 23.976 fps
    Color space : YUV
    Chroma subsampling : 4:2:0
    Bit depth : 8 bits
    Scan type : Progressive
    Bits/(Pixel*Frame) : 0.180
    Stream size : 2.09 GiB (67%)
    Title : -Lexx-
    Writing library : x264 core 146 r2538 121396c
    Encoding settings : cabac=1/ref=9/deblock=1:-2:-2/analyse=0x3:0x113/me=umh/subme=11/psy=1/psy_rd=1.00:0.10/mixed_ref=1/me_range=48/chroma_me=1/trellis=2/8x8dct=1/cqm=0/deadzone=21, 11/fast_pskip=0/chroma_qp_offset=-3/threads=6/lookahead_threads=2/sliced_threads=0/nr=0/decimate=1/interlaced=0/bluray_compat=0/constrained_intra=0/bframes=10/b_pyramid=2/b_adapt=2/b_bias=0/direct=3/weightb=1/open_gop=0/weightp=2/keyint=240/keyint_min=23/scenecut=40/intra_refresh=0/rc=2pass/mbtree=0/bitrate=1888/ratetol=1.0/qcomp=0.60/qpmin=0/qpmax=69/qpstep=4/cplxblur=20.0/qblur=0.5/ip_ratio=1.40/pb_ratio=1.30/aq=1:1.00
    Language : English
    Default : Yes
    Forced : No
    DURATION : 02:43:15.077000000
    NUMBER_OF_FRAMES : 234847
    NUMBER_OF_BYTES : 2311693675
    _STATISTICS_WRITING_APP : mkvmerge v9.2.0 (\'Photograph\') 64bit
    _STATISTICS_WRITING_DATE_UTC : 2016-07-12 19:32:54
    _STATISTICS_TAGS : BPS DURATION NUMBER_OF_FRAMES NUMBER_OF_BYTES
    Audio #1
    ID : 2
    Format : AC-3
    Format/Info : Audio Coding 3
    Mode extension : CM (complete main)
    Codec ID : A_AC3
    Duration : 2h 44mn
    Bit rate mode : Constant
    Bit rate : 384 Kbps
    Channel(s) : 6 channels
    Channel positions : Front: L C R, Side: L R, LFE
    Sampling rate : 48.0 KHz
    Bit depth : 16 bits
    Compression mode : Lossy
    Stream size : 451 MiB (14%)
    Title : iTunes
    Language : Russian
    Default : Yes
    Forced : No
    Audio #2
    ID : 3
    Format : AC-3
    Format/Info : Audio Coding 3
    Mode extension : CM (complete main)
    Codec ID : A_AC3
    Duration : 2h 44mn
    Bit rate mode : Constant
    Bit rate : 448 Kbps
    Channel(s) : 6 channels
    Channel positions : Front: L C R, Side: L R, LFE
    Sampling rate : 48.0 KHz
    Bit depth : 16 bits
    Compression mode : Lossy
    Stream size : 526 MiB (17%)
    Title : Оригинал
    Language : Spanish
    Default : No
    Forced : No
    Text
    ID : 4
    Format : UTF-8
    Codec ID : S_TEXT/UTF8
    Codec ID/Info : UTF-8 Plain Text
    Title : Full
    Language : English
    Default : No
    Forced : No
    Menu
    00:00:00.000 : en:00:00:00.000
    00:09:42.373 : en:00:09:42.373
    00:22:57.334 : en:00:22:57.334
    00:33:35.472 : en:00:33:35.472
    00:43:04.290 : en:00:43:04.290
    00:54:21.967 : en:00:54:21.967
    01:02:52.394 : en:01:02:52.394
    01:13:23.816 : en:01:13:23.816
    01:26:05.118 : en:01:26:05.118
    01:42:58.214 : en:01:42:58.214
    01:53:23.630 : en:01:53:23.630
    02:07:47.994 : en:02:07:47.994
    02:20:08.900 : en:02:20:08.900
    02:32:35.313 : en:02:32:35.313
    02:37:43.204 : en:02:37:43.204


    Скриншоты для ознакомления




    Онлайн видео Пальмы в снегу



    Пальмы в снегу/Palmeras en la nieve (2015) HDRip [H.264]
    загрузка...
    Рейтинг →
     (голосов: 1, оценка 3/5, голосовать можно 1 раз )

    Другие торренты по теме:

  • Пальмы в снегу / Palmeras en la nieve (2015) BDRip [H.264 / 1080p] [SP / En Sub]
  • Пальмы в снегу / Palmeras en la nieve (2015) BDRip [H.264 / 1080p] [Line]
  • Пальмы в снегу / Palmeras en la nieve (2015) BDRemux [H.264 / 1080p]
  • Пальмы в снегу / Palmeras en la nieve (2015) BDRip [H.264 / 1080p]


    • Комментарии (0):

      Информация

      Информация

        Посетители, находящиеся в группе Гости, не могут оставлять комментарии в данной новости.

        ↓ Меню




        ↓ Опрос

        Вы добавили сайт в закладки?
        Да
        Нет


        Top 10 за месяц (Фильмы)