.
Авторизация | Регистрация
Хочешь лучшие торренты? Добавь свой email!
Добавить

Торрент скачать бесплатно

» » Пальмы в снегу / Palmeras en la nieve (2015) BDRemux [H.264 / 1080p] торрент скачать бесплатно




    Пальмы в снегу / Palmeras en la nieve (2015) BDRemux [H.264 / 1080p] торрент скачать бесплатно

    Опубликовал: Админ | Дата: 17-07-2016, 04:04 | Просмотров: 38

    Производство: Испания, Nostromo Pictures, Atresmedia Cine, Dynamo, Telefonica Studios, Warner Bros. Pictures International
    Жанр: Драма, Мелодрама
    Режиссер: Фернандо Гонзалез Молина

    Актеры
    Марио Касас, Лайа Коста, Адриана Угарте, Макарена Гарсия, Ален Эрнандес, Берта Васкес, Джедже Апали, Даниэль Грао, Фернандо Кайо, Сельсо Бугальо, Петра Мартинес, Луис Кальехо, Хосе Мануэль Ривера и другие.

    Описание

    Это история о большой любви, связи времен и поколений. Красавица Кларенс живет в холодных горах. Однажды она находит загадочное письмо и решает узнать правду о прошлом своего отца. Девушка отправляется на остров Фернандо-По и как будто попадает в рай. Она идет по следам семейных тайн, где есть и запретная любовь, и предательство, и великие события, ставшие частью мировой истории.

    Премьера (мир): 9 декабря 2015
    Премьера (РФ): 7 апреля 2016, Capella Film

    Продолжительность: 02: 44: 02
    Качество видео: BDRemux
    Перевод: Профессиональный (многоголосый, закадровый) (iTunes)
    Язык субтитров: Английский
    Вид субтитров: Вшитые отключаемые
    Видео: AVC/H.264, 1920x1080p, (16: 9), 22.0 Mbps, 23, 976 fps
    Аудио: AC3, 6 ch, 384 kbps - Русский
    Аудио: AC3, 2 ch, 448 kbps - Испанский
    Аудио: DTS-HD MA, 8 ch, 3747 kbps - Испанский
    Код:

    Полное имя : F:Palmeras.en.la.nieve.2015.BDRemux.1080p.NovaLan.mkv
    Формат : Matroska
    Версия формата : Version 4/Version 2
    Размер файла : 30, 3 Гбайт
    Продолжительность : 2 ч. Белая ворона, сказал кто то из толпы, к чему не понятно. 44 м.
    Режим общего битрейта : Переменный
    Общий поток : 26, 5 Мбит/сек
    Дата кодирования : UTC 2016-07-09 17:56:54
    Программа кодирования : mkvmerge v6.9.1 (\'Blue Panther\') 64bit built on Apr 18 2014 18:23:38
    Библиотека кодирования : libebml v1.3.0 + libmatroska v1.4.1
    Видео
    Идентификатор : 1
    Формат : AVC
    Формат/Информация : Advanced Video Codec
    Профиль формата :High@L4.1
    Параметр CABAC формата : Да
    Параметр ReFrames формата : 4 кадра
    Идентификатор кодека : V_MPEG4/ISO/AVC
    Продолжительность : 2 ч. 44 м.
    Вид битрейта : Переменный
    Битрейт : 23, 5 Мбит/сек
    Максимальный битрейт : 28, 0 Мбит/сек
    Ширина : 1920 пикселей
    Высота : 1080 пикселей
    Соотношение сторон : 16:9
    Частота кадров : 23, 976 кадра/сек
    Стандарт вещания : NTSC
    Цветовое пространство : YUV
    Субдискретизация насыщенности : 4:2:0
    Битовая глубина : 8 бит
    Тип развёртки : Прогрессивная
    Бит/(Пиксели*Кадры) : 0.473
    Размер потока : 27, 0 Гбайт (89%)
    Заголовок : Palmeras en la nieve 2015 - NovaLan
    Default : Да
    Forced : Нет
    Основные цвета : BT.709-5, BT.1361, IEC 61966-2-4, SMPTE RP177
    Характеристики трансфера : BT.709-5, BT.1361
    Коэффициенты матрицы : BT.709-5, BT.1361, IEC 61966-2-4 709, SMPTE RP177
    Аудио #1
    Идентификатор : 2
    Формат : AC-3
    Формат/Информация : Audio Coding 3
    Расширение режима : CM (complete main)
    Параметр Endianness формата : Big
    Идентификатор кодека : A_AC3
    Продолжительность : 2 ч. 44 м.
    Вид битрейта : Постоянный
    Битрейт : 384 Кбит/сек
    Каналы : 6 каналов
    Расположение каналов : Front: L C R, Side: L R, LFE
    Частота : 48, 0 КГц
    Битовая глубина : 16 бит
    Метод сжатия : С потерями
    Размер потока : 451 Мбайт (1%)
    Язык : Russian
    Default : Да
    Forced : Нет
    Аудио #2
    Идентификатор : 3
    Формат : DTS
    Формат/Информация : Digital Theater Systems
    Профиль формата : MA/Core
    Идентификатор кодека : A_DTS
    Продолжительность : 2 ч. 44 м.
    Вид битрейта : Переменный
    Битрейт : 1597 Кбит/сек/1510 Кбит/сек
    Каналы : 8 каналов/6 каналов
    Расположение каналов : Front: L C R, Side: L R, Back: L R, LFE/Front: L C R, Side: L R, LFE
    Частота : 48, 0 КГц
    Битовая глубина : 24 бит
    Метод сжатия : Без потерь/Lossy
    Язык : Spanish
    Default : Нет
    Forced : Нет
    Аудио #3
    Идентификатор : 4
    Формат : AC-3
    Формат/Информация : Audio Coding 3
    Профиль формата : Dolby Digital
    Расширение режима : CM (complete main)
    Параметр Endianness формата : Big
    Идентификатор кодека : A_AC3
    Продолжительность : 2 ч. 44 м.
    Вид битрейта : Постоянный
    Битрейт : 448 Кбит/сек
    Каналы : 2 канала
    Расположение каналов : Front: L R
    Частота : 48, 0 КГц
    Битовая глубина : 16 бит
    Метод сжатия : С потерями
    Размер потока : 526 Мбайт (2%)
    Язык : Spanish
    Default : Нет
    Forced : Нет
    Текст
    Идентификатор : 5
    Формат : UTF-8
    Идентификатор кодека : S_TEXT/UTF8
    Идентификатор кодека/Информация : UTF-8 Plain Text
    Язык : English
    Default : Нет
    Forced : Нет
    Меню
    00:00:00.000 : en:Chapter 1
    00:09:42.373 : en:Chapter 2
    00:22:57.334 : en:Chapter 3
    00:33:35.471 : en:Chapter 4
    00:43:04.290 : en:Chapter 5
    00:54:21.967 : en:Chapter 6
    01:02:52.393 : en:Chapter 7
    01:13:23.816 : en:Chapter 8
    01:26:05.118 : en:Chapter 9
    01:42:58.213 : en:Chapter 10
    01:53:23.630 : en:Chapter 11
    02:07:47.993 : en:Chapter 12
    02:20:08.900 : en:Chapter 13
    02:32:35.312 : en:Chapter 14
    02:37:43.203 : en:Chapter 15


    Скриншоты для ознакомления




    Онлайн видео Пальмы в снегу



    Пальмы в снегу/Palmeras en la nieve (2015) BDRemux [H.264/1080p]
    загрузка...
    Рейтинг →
     (голосов: 1, оценка 4/5, голосовать можно 1 раз )

    Другие торренты по теме:

  • Пальмы в снегу / Palmeras en la nieve (2015) BDRip [H.264 / 1080p] [SP / En Sub]
  • Пальмы в снегу / Palmeras en la nieve (2015) BDRip [H.264 / 1080p] [Line]
  • Пальмы в снегу / Palmeras en la nieve (2015) BDRip [H.264 / 1080p]
  • Пальмы в снегу / Palmeras en la nieve (2015) HDRip [H.264]


    • Комментарии (0):

      Информация

      Информация

        Посетители, находящиеся в группе Гости, не могут оставлять комментарии в данной новости.

        ↓ Меню




        ↓ Опрос

        Вы добавили сайт в закладки?
        Да
        Нет


        Top 10 за месяц (Фильмы)