.
Авторизация | Регистрация
Хочешь лучшие торренты? Добавь свой email!
Добавить

Торрент скачать бесплатно

» » Коварные горничные / Devious Maids (2016) WEB-DLRip (сезон 4, серии 1-6 из 10) LostFilm (обновляемая) торрент скачать бесплатно




    Коварные горничные / Devious Maids (2016) WEB-DLRip (сезон 4, серии 1-6 из 10) LostFilm (обновляемая) торрент скачать бесплатно

    Опубликовал: Админ | Дата: 17-07-2016, 04:04 | Просмотров: 20

    Производство: США/ABC Studios, Cherry/Wind Productions, Televisa USA
    Жанр: драма, комедия, детектив
    Режиссер: Дэвид Уоррен, Тара Николь Вейр, Дэвид Гроссман

    Актеры
    Ана Ортис, Даня Рамирес, Джуди Рейес, Ребекка Високки, Грант Шоу, Сьюзэн Луччи, Роселин Санчес, Том Ирвин, Эди Ганем, Дрю Ван Экер и др.

    Описание

    В центре сюжета - четыре амбициозные латиноамериканские горничные, работающие в домах богатых и знаменитых жителей Беверли-Хиллз. Их подруга найдена жестоко убитой. С собой в могилу она унесла общую шокирующую тайну. После этого им приходится хранить секрет, чего бы это ни стоило, продолжая работать на своих испорченных и красивых хозяев.

    Продолжительность: ~00: 42: 00 серия
    Качество видео: WEB-DLRip
    Перевод: Многоголосый закадровый, профессиональный -LostFilm
    Реклама: присутствуют заставка и логотип LostFilm.
    Видео: XviD, 720х400 (16: 9), ~1643 kb/s
    Аудио Rus: MPEG Layer 3, 48, 0 kHz, 2 ch, 192 kb/s - многоголосый закадровый
    Код:

    Общее
    Полное имя : D:Коварные горничные (сезон любимого сериала 4) Devious Maids (2016) WEB-DLRip - LostFilmDevious.Maids.S04E01.rus.LostFilm.TV.avi
    Формат : AVI
    Формат/Информация : Audio Video Interleave
    Размер файла : 560 Мбайт
    Продолжительность : 42 м.
    Режим общего битрейта : Переменный
    Общий поток : 1846 Кбит/сек
    Программа кодирования : Nandub v1.0rc2
    Библиотека кодирования : Nandub build 1853/release
    Видео
    Идентификатор : 0
    Формат : MPEG-4 Visual
    Профиль формата : Advanced Simple@L5
    Параметр BVOP формата : Нет
    Параметр QPel формата : Нет
    Параметр GMC формата : Без точки перехода
    Параметр матрицы формата : Default (H.263)
    Идентификатор кодека : XVID
    Идентификатор кодека/Подсказка : XviD
    Продолжительность : 42 м.
    Битрейт : 1643 Кбит/сек
    Ширина : 720 пикселей
    Высота : 400 пикселей
    Соотношение сторон : 16:9
    Частота кадров : 23, 976 (23976/1000) кадра/сек
    Цветовое пространство : YUV
    Субдискретизация насыщенности : 4:2:0
    Битовая глубина : 8 бит
    Тип развёртки : Прогрессивная
    Метод сжатия : С потерями
    Бит/(Пиксели*Кадры) : 0.238
    Размер потока : 498 Мбайт (89%)
    Библиотека кодирования : XviD 1.2.1 (UTC 2008-12-04)
    Аудио
    Идентификатор : 1
    Формат : MPEG Audio
    Версия формата : Version 1
    Профиль формата : Layer 3
    Режим : Joint stereo
    Расширение режима : MS Stereo
    Идентификатор кодека : 55
    Идентификатор кодека/Подсказка : MP3
    Продолжительность : 42 м.
    Вид битрейта : Переменный
    Битрейт : 192 Кбит/сек
    Каналы : 2 канала
    Частота : 48, 0 КГц
    Метод сжатия : С потерями
    Размер потока : 57, 7 Мбайт (10%)
    Выравнивание : Соединение по промежуткам
    Продолжительность промежутка : 24 мс. (0, 58 видеокадр)
    Время предзагрузки промежутка : 480 мс.
    Библиотека кодирования : LAME3.97b
    Настройки программы : -m j -V 4 -q 3 -lowpass 18.6 --abr 192


    Скриншоты для ознакомления




    Онлайн видео Коварные горничные



    Коварные горничные/Devious Maids (2016) WEB-DLRip (сезон 4, серии 1-6 из 10) LostFilm (обновляемая)
    загрузка...
    Рейтинг →
     (голосов: 1, оценка 3/5, голосовать можно 1 раз )

    Другие торренты по теме:

  • Коварные горничные / Devious Maids (2013) WEB-DLRip (сезон 1, серии 1 из 13) LostFilm (обновляемая)
  • Коварные горничные / Devious Maids (2013) WEB-DL [H.264 / 720p-LQ] (сезон 1, серии 1 из 13) (LostFilm) (обновляемая) скачать через торрент бесплатно
  • Коварные горничные / Devious Maids (2014) WEB-DLRip (сезон 2, серии 1 из 13) LostFilm (обновляемая) скачать через торрент бесплатно
  • Коварные горничные / Devious Maids (2014) WEB-DLRip [H.264 / 1080p-LQ] (cезон 2, серии 1-2 из 13) (LostFilm) (обновляемая)
  • Коварные горничные / Devious Maids (2013) WEB-DLRip [H.264 / 1080p-LQ] (сезон 1, серии 01-13 из 13) (LostFilm)
  • Коварные горничные / Devious Maids (2015) WEB-DLRip (сезон 3, серии 1 из 13) BaibaKo (обновляемая) скачать через торрент бесплатно
  • Коварные горничные / Devious Maid (2015) WEB-DLRip [H.264] (Сезон 3, серия 1 из 13) BaibaKo [MP4|720x400] скачать через торрент бесплатно
  • Коварные горничные / Devious Maids (2015) WEB-DLRip (сезон 3, серии 1 из 13) LostFilm (обновляемая) скачать через торрент бесплатно


    • Комментарии (0):

      Информация

      Информация

        Посетители, находящиеся в группе Гости, не могут оставлять комментарии в данной новости.

        ↓ Меню




        ↓ Опрос

        Вы добавили сайт в закладки?
        Да
        Нет


        Top 10 за месяц (Фильмы)