.
Авторизация | Регистрация
Хочешь лучшие торренты? Добавь свой email!
Добавить

Торрент скачать бесплатно

» » Частные сыщики / Private Eyes (2016) WEB-DLRip [H.264 / 1080p-LQ] (сезон 1, серии 1-7 из 10) BaibaKo (обновляемая) торрент скачать бесплатно




    Частные сыщики / Private Eyes (2016) WEB-DLRip [H.264 / 1080p-LQ] (сезон 1, серии 1-7 из 10) BaibaKo (обновляемая) торрент скачать бесплатно

    Опубликовал: Админ | Дата: 17-07-2016, 04:04 | Просмотров: 260

    Производство: Канада
    Жанр: драма
    Режиссер: Келли Макин, Роберт Либерман, Энн Вилер

    Актеры
    Джейсон Пристли, Синди Сэмпсон, Бэрри Флэтмэн, Джордин Негри, Эннис Эсмер, Кле Беннетт и др.

    Описание

    Мэтт Шейд был успешным хоккеистом, которому пророчили большой успех и огромные достижения в мире спорта. Теперь он решил, что ему нужно заняться не спортом, а частным сыском, поэтому вместе с суровой и харизматичной женщиной-сыщиком Энджи Эверетт решает основать агентство по расследованиям особо сложных дел. Вилами по воде писано, сказал кто то из толпы, к чему не понятно. Ставки в новой профессии очень высоки. Главные герои пытаются понять сначала, что задумал преступник, а потом стараются взять негодяя с поличным. При этом Энджи и Мэтт — совершенно разные люди. Они пытаются перенять друг у друга лучшие качества, но вот отрицательные стороны нередко выводят героев из себя. В расследованиях одна ошибка может стоить очень дорого!

    Дата мировой премьеры: 26 мая 2016
    Качество видео: WEB-DLRip
    Перевод: Многоголосый закадровый, профессиональный -BaibaKo
    Реклама: присутствуют аудио, видео, текстовые вставки рекламы.
    Видео: AVC/H.264, 1912х1072 (16: 9), ~4949 Kbps
    Аудио #1 Rus: AC3, 6 ch, 384 kbps - многоголосый закадровый
    Аудио #2 Eng: AC3, 6 ch, 384 kbps - оригинальный
    Код:

    rivate.Eyes.s01e01.HD1080p.WEB-DL.Rus.Eng.BaibaKo.tv.mkv
    Format : Matroska
    Format version : Version 4/Version 2
    File size : 1.70 GiB
    Duration : 42 min
    Overall bit rate : 5 719 kb/s
    Encoded date : UTC 2016-06-28 06:31:17
    Writing application : mkvmerge v8.5.2 (\'Crosses\') 64bit
    Writing library : libebml v1.3.3 + libmatroska v1.4.4
    Video
    ID : 1
    Format : AVC
    Format/Info : Advanced Video Codec
    Format profile :High@L4.1
    Format settings, CABAC : Yes
    Format settings, ReFrames : 4 frames
    Codec ID : V_MPEG4/ISO/AVC
    Duration : 42 min
    Bit rate : 4 949 kb/s
    Nominal bit rate : 4 096 kb/s
    Width : 1 912 pixels
    Height : 1 072 pixels
    Display aspect ratio : 16:9
    Frame rate mode : Constant
    Frame rate : 23.976 (24000/1001) FPS
    Color space : YUV
    Chroma subsampling : 4:2:0
    Bit depth : 8 bits
    Scan type : Progressive
    Bits/(Pixel*Frame) : 0.101
    Stream size : 1.47 GiB (87%)
    Writing library : x264 core 142 r2479 dd79a61
    Encoding settings : cabac=1/ref=3/deblock=1:0:0/analyse=0x3:0x113/me=hex/subme=7/psy=1/psy_rd=1.00:0.00/mixed_ref=1/me_range=16/chroma_me=1/trellis=1/8x8dct=1/cqm=0/deadzone=21, 11/fast_pskip=1/chroma_qp_offset=-2/threads=12/lookahead_threads=2/sliced_threads=0/nr=0/decimate=1/interlaced=0/bluray_compat=0/constrained_intra=0/bframes=3/b_pyramid=2/b_adapt=1/b_bias=0/direct=1/weightb=1/open_gop=0/weightp=2/keyint=240/keyint_min=24/scenecut=40/intra_refresh=0/rc_lookahead=40/rc=2pass/mbtree=1/bitrate=4096/ratetol=1.0/qcomp=0.60/qpmin=0/qpmax=69/qpstep=4/cplxblur=20.0/qblur=0.5/vbv_maxrate=62500/vbv_bufsize=78125/nal_hrd=none/filler=0/ip_ratio=1.40/aq=1:1.00
    Default : No
    Forced : No
    Color range : Limited
    Color primaries : BT.709
    Transfer characteristics : BT.709
    Matrix coefficients : BT.709
    Audio #1
    ID : 2
    Format : AC-3
    Format/Info : Audio Coding 3
    Mode extension : CM (complete main)
    Format settings, Endianness : Big
    Codec ID : A_AC3
    Duration : 42 min
    Bit rate mode : Constant
    Bit rate : 384 kb/s
    Channel(s) : 6 channels
    Channel positions : Front: L C R, Side: L R, LFE
    Sampling rate : 48.0 kHz
    Frame rate : 31.250 FPS (1536 spf)
    Compression mode : Lossy
    Stream size : 117 MiB (7%)
    Language : Russian
    Default : Yes
    Forced : No
    Audio #2
    ID : 3
    Format : AC-3
    Format/Info : Audio Coding 3
    Mode extension : CM (complete main)
    Format settings, Endianness : Big
    Codec ID : A_AC3
    Duration : 42 min
    Bit rate mode : Constant
    Bit rate : 384 kb/s
    Channel(s) : 6 channels
    Channel positions : Front: L C R, Side: L R, LFE
    Sampling rate : 48.0 kHz
    Frame rate : 31.250 FPS (1536 spf)
    Compression mode : Lossy
    Stream size : 117 MiB (7%)
    Language : English
    Default : No
    Forced : No


    Скриншоты для ознакомления




    Онлайн видео Частные сыщики



    Частные сыщики/Private Eyes (2016) WEB-DLRip [H.264/1080p-LQ] (сезон 1, серии 1-7 из 10) BaibaKo (обновляемая)
    загрузка...
    Рейтинг →
     (голосов: 1, оценка 3/5, голосовать можно 1 раз )

    Другие торренты по теме:

  • Частные сыщики / The Private Eyes (1980) DVDRip [H.264] [EN / EN Sub] скачать через торрент бесплатно


    • Комментарии (0):

      Информация

      Информация

        Посетители, находящиеся в группе Гости, не могут оставлять комментарии в данной новости.

        ↓ Меню




        ↓ Опрос

        Вы добавили сайт в закладки?
        Да
        Нет


        Top 10 за месяц (Фильмы)