.
Авторизация | Регистрация
Хочешь лучшие торренты? Добавь свой email!
Добавить

Торрент скачать бесплатно

» » Спас под березами (2003) DVDRip [H.264] (серии 1-12 из 12) торрент скачать бесплатно




    Спас под березами (2003) DVDRip [H.264] (серии 1-12 из 12) торрент скачать бесплатно

    Опубликовал: Админ | Дата: 17-07-2016, 04:04 | Просмотров: 63

    Производство: Россия/2В студия
    Жанр: драма
    Режиссер: Леонид Эйдлин

    Актеры
    Юрий Беляев, Георгий Тараторкин, Ирина Розанова, Валерий Золотухин, Надежда Маркина, Ирина Муравьева, Дмитрий Ефремов, Екатерина Мигицко, Паша Зайцев, Алексей Завьялов и др.

    Описание

    Спас под березами - старинный московский храм, построенный несколько веков назад и к середине 20-го пришедший в полный упадок. Но в один прекрасный день в храме появился отец Георгий, который решил, во что бы то ни стало восстановить святыню. На собранные скромные средства провели ремонтные работы и закупили иконы. Вскоре в храме сложился причт, появились певчие, и в церковь потянулись люди. Спас под березами - это рассказ о жизни простых горожан, объединенных вокруг возрождающегося прихода. Этот сериал складывается из отдельных новелл, порой вовсе не связанных с церковью. В центре каждой истории окажутся самые разные люди – далеко не все верующие, далеко не все ангелы… Их жизненные проблемы не замкнуты на церкви, иной раз – далеки от нее. И любовь, и низость, и готовность опустить руки перед бедой, и семейные сложности, и взлеты духа, и падения – ниже некуда… Словом, все, как у людей… но живущих возле храма, куда очень просто зайти. Если возникнет желание.

    Продолжительность: ~ 00: 44: 00 серия
    Качество видео: DVDRip
    Видео: AVC/H.264, 704x568@750x568 (4: 3), ~1900 Кбит/сек
    Аудио: AC3, 2 канала, 192 Кбит/сек
    Код:

    Общее
    Уникальный идентификатор : 320661673779350381397300552943721450291 (0xF13D3123F4CA2E6ACE2D7B4296EB0B33)
    Полное имя : E:1. Отец Георгий.mkv
    Формат : Matroska
    Версия формата : Version 4/Version 2
    Размер файла : 659 Мбайт
    Продолжительность : 43 м.
    Общий поток : 2096 Кбит/сек
    Название фильма : Глава 1-я. Отец Георгий.
    Кодирование произвёл : andrejpushkaryov
    Описание : Телевизионный роман
    Программа кодирования : Lavf56.40.101
    Библиотека кодирования : Lavf56.40.101/Lavf56.40.101
    Видео
    Идентификатор : 1
    Формат : AVC
    Формат/Информация : Advanced Video Codec
    Профиль формата :High@L3.1
    Параметр CABAC формата : Да
    Параметр ReFrames формата : 8 кадров
    Идентификатор кодека : V_MPEG4/ISO/AVC
    Продолжительность : 43 м.
    Битрейт : 1900 Кбит/сек
    Ширина : 704 пикселя
    Высота : 568 пикселей
    Соотношение сторон : 4:3
    Режим частоты кадров : Постоянный
    Частота кадров : 25, 000 кадров/сек
    Цветовое пространство : YUV
    Субдискретизация насыщенности : 4:2:0
    Битовая глубина : 8 бит
    Тип развёртки : Прогрессивная
    Бит/(Пиксели*Кадры) : 0.190
    Размер потока : 585 Мбайт (89%)
    Библиотека кодирования : x264 core 148 r2643 5c65704
    Настройки программы : cabac=1/ref=8/deblock=1:0:0/analyse=0x3:0x133/me=umh/subme=9/psy=1/psy_rd=1.00:0.00/mixed_ref=1/me_range=16/chroma_me=1/trellis=2/8x8dct=1/cqm=0/deadzone=21, 11/fast_pskip=1/chroma_qp_offset=-2/threads=6/lookahead_threads=1/sliced_threads=0/nr=0/decimate=1/interlaced=0/bluray_compat=0/constrained_intra=0/bframes=3/b_pyramid=2/b_adapt=2/b_bias=0/direct=3/weightb=1/open_gop=0/weightp=2/keyint=250/keyint_min=25/scenecut=40/intra_refresh=0/rc_lookahead=60/rc=2pass/mbtree=1/bitrate=1900/ratetol=1.0/qcomp=0.60/qpmin=0/qpmax=69/qpstep=4/cplxblur=20.0/qblur=0.5/ip_ratio=1.40/aq=1:1.00
    Default : Да
    Forced : Нет
    DURATION : 00:43:57.005000000
    Аудио
    Идентификатор : 2
    Формат : AC-3
    Формат/Информация : Audio Coding 3
    Расширение режима : CM (complete main)
    Параметр Endianness формата : Big
    Идентификатор кодека : A_AC3
    Продолжительность : 43 м.
    Вид битрейта : Постоянный
    Битрейт : 192 Кбит/сек
    Каналы : 2 канала
    Расположение каналов : Front: L R
    Частота : 48, 0 КГц
    Частота кадров : 31, 250 кадров/сек (1536 spf)
    Битовая глубина : 16 бит
    Метод сжатия : С потерями
    Задержка видео : -85 мс.
    Размер потока : 60, 4 Мбайт (9%)
    Библиотека кодирования : Lavc56.60.100 ac3_fixed
    Язык : Russian
    Default : Да
    Forced : Нет
    DURATION : 00:43:57.024000000


    Скриншоты для ознакомления




    Онлайн видео Спас под березами (2003) DVDRip [H.264] (серии 1



    Спас под березами (2003) DVDRip [H.264] (серии 1-12 из 12)
    загрузка...
    Рейтинг →
     (голосов: 1, оценка 4/5, голосовать можно 1 раз )

    Другие торренты по теме:

  • Нераскрытые тайны. Как Рихард Зорге спас Москву (2014) SATRip
  • Человек, который спас мир / The Man Who Saved the World (2014) WEBRip
  • Человек, который спас Василия Блаженного (2008) DVB
  • Шейла Нортон | Оливер. Кот, который спас праздник (2016) [FB2]
  • Юрий Ленчевский | Как СМЕРШ спас Сталина. Покушения на вождя (2015) [FB2, EPUB]
  • Льюис Е. Каплан | Сталин. Человек, который спас капитализм (2007) [DJVU]


    • Комментарии (0):

      Информация

      Информация

        Посетители, находящиеся в группе Гости, не могут оставлять комментарии в данной новости.

        ↓ Меню




        ↓ Опрос

        Вы добавили сайт в закладки?
        Да
        Нет


        Top 10 за месяц (Фильмы)