.
Авторизация | Регистрация
Хочешь лучшие торренты? Добавь свой email!
Добавить

Торрент скачать бесплатно

» » Молодые и голодные / Young & Hungry (2016) WEB-DLRip [H.264 / 1080p-LQ] (сезон 4, серии 1-7 из 10) BaibaKo (обновляемая) торрент скачать бесплатно




    Молодые и голодные / Young & Hungry (2016) WEB-DLRip [H.264 / 1080p-LQ] (сезон 4, серии 1-7 из 10) BaibaKo (обновляемая) торрент скачать бесплатно

    Опубликовал: Админ | Дата: 17-07-2016, 04:04 | Просмотров: 27

    Производство: США
    Жанр: драма, мелодрама, комедия
    Режиссер: Энди Кэдифф, Робби Кантримэн, Фил Льюис

    Актеры
    Эмили Осмент, Джонатан Садовский, Рекс Ли, Ким Уитли, Айми Кареро, Мэллори Джэнсен, Джамар Браун-Кинг, Энни Поттс, Майкл Волтаджио, Джесси МакКартни и др.

    Описание

    Амбициозности и уверенности в себе, а также чувства юмора и энергичности у Габи предостаточно. Пока она всего лишь блогер, пишущий о еде, но она не намерена останавливаться на достигнутом. Ее мечта — доказать всем и самой себе, что быть профессиональным кулинаром — проще простого и ей это по плечу. И вот однажды у нее появляется шанс проявить все свои поварские таланты. Предприниматель Джош нанимает Габи на должность личного шеф-повара. Для начала героине сериала Молодые и голодные нужно приготовить романтический ужин.

    Продолжительность: ~00: 22: 00 серия
    Качество видео: WEB-DLRip
    Перевод: Многоголосый закадровый, профессиональный -BaibaKo
    Реклама: присутствуют аудио, видео, текстовые вставки рекламы.
    Видео: AVC/H.264, 1920x1080 (16: 9), ~5092 Кбит/сек
    Аудио #1 Rus: AC3, 48, 0 КГц, 6 каналов, 384 Кбит/сек — многоголосый закадровый
    Аудио #2 Eng: AC3, 48, 0 КГц, 6 каналов, 384 Кбит/сек — оригинал
    Код:

    Young.and.Hungry.s04e01.HD1080p.WEB-DL.Rus-Eng.BaibaKo.tv.mkv
    Format : Matroska
    Format version : Version 4/Version 2
    File size : 894 MiB
    Duration : 21 min
    Overall bit rate : 5 862 kb/s
    Encoded date : UTC 2016-06-27 02:52:56
    Writing application : mkvmerge v9.1.0 (\'Little Earthquakes\') 64bit
    Writing library : libebml v1.3.3 + libmatroska v1.4.4
    Video
    ID : 1
    Format : AVC
    Format/Info : Advanced Video Codec
    Format profile : High@L4
    Format settings, CABAC : Yes
    Format settings, ReFrames : 4 frames
    Codec ID : V_MPEG4/ISO/AVC
    Duration : 21 min
    Bit rate : 5 092 kb/s
    Width : 1 920 pixels
    Height : 1 080 pixels
    Display aspect ratio : 16:9
    Frame rate mode : Constant
    Frame rate : 23.976 (23976/1000) FPS
    Color space : YUV
    Chroma subsampling : 4:2:0
    Bit depth : 8 bits
    Scan type : Progressive
    Bits/(Pixel*Frame) : 0.102
    Stream size : 776 MiB (87%)
    Writing library : x264 core 148 r2692 64f4e24
    Encoding settings : cabac=1/ref=3/deblock=1:0:0/analyse=0x3:0x113/me=hex/subme=7/psy=1/psy_rd=1.00:0.00/mixed_ref=1/me_range=16/chroma_me=1/trellis=1/8x8dct=1/cqm=0/deadzone=21, 11/fast_pskip=1/chroma_qp_offset=-2/threads=12/lookahead_threads=2/sliced_threads=0/nr=0/decimate=1/interlaced=0/bluray_compat=0/constrained_intra=0/bframes=3/b_pyramid=2/b_adapt=1/b_bias=0/direct=1/weightb=1/open_gop=0/weightp=2/keyint=240/keyint_min=23/scenecut=40/intra_refresh=0/rc_lookahead=40/rc=crf/mbtree=1/crf=18.0/qcomp=0.60/qpmin=0/qpmax=69/qpstep=4/ip_ratio=1.40/aq=1:1.00
    Default : No
    Forced : No
    Audio #1
    ID : 2
    Format : AC-3
    Format/Info : Audio Coding 3
    Mode extension : CM (complete main)
    Format settings, Endianness : Big
    Codec ID : A_AC3
    Duration : 21 min
    Bit rate mode : Constant
    Bit rate : 384 kb/s
    Channel(s) : 6 channels
    Channel positions : Front: L C R, Side: L R, LFE
    Sampling rate : 48.0 kHz
    Frame rate : 31.250 FPS (1536 spf)
    Compression mode : Lossy
    Stream size : 58.6 MiB (7%)
    Language : Russian
    Default : Yes
    Forced : No
    Audio #2
    ID : 3
    Format : AC-3
    Format/Info : Audio Coding 3
    Mode extension : CM (complete main)
    Format settings, Endianness : Big
    Codec ID : A_AC3
    Duration : 21 min
    Bit rate mode : Constant
    Bit rate : 384 kb/s
    Channel(s) : 6 channels
    Channel positions : Front: L C R, Side: L R, LFE
    Sampling rate : 48.0 kHz
    Frame rate : 31.250 FPS (1536 spf)
    Compression mode : Lossy
    Stream size : 58.6 MiB (7%)
    Language : English
    Default : No
    Forced : No


    Скриншоты для ознакомления




    Онлайн видео Молодые и голодные



    Молодые и голодные/Young & Hungry (2016) WEB-DLRip [H.264/1080p-LQ] (сезон 4, серии 1-7 из 10) BaibaKo (обновляемая)
    загрузка...
    Рейтинг →
     (голосов: 1, оценка 4/5, голосовать можно 1 раз )

    Другие торренты по теме:

  • Молодые и голодные / Young & Hungry (2014) WEB-DL [H.264 / 720p-LQ] (Сезон 1, Серии 1-7 из 10) BaibaKo (обновляемая) скачать через торрент бесплатно
  • Молодые и голодные / Young & Hungry (2015) HDTVRip [H.264 / 720p-LQ] (сезон 2, серии 1-21 из 21) LynxStudio & HighHopes
  • Молодые и голодные / Young & Hungry (2016) HDTVRip [H.264 / 720p-LQ] (сезон 3, серии 1-10 из 10) LynxStudio & HighHopes


    • Комментарии (0):

      Информация

      Информация

        Посетители, находящиеся в группе Гости, не могут оставлять комментарии в данной новости.

        ↓ Меню




        ↓ Опрос

        Вы добавили сайт в закладки?
        Да
        Нет


        Top 10 за месяц (Фильмы)