.
Авторизация | Регистрация

Торрент скачать бесплатно

» » Цена страсти / The Ledge (2011) BDRip [H.264 / 720p] скачать торрент бесплатно




    Цена страсти / The Ledge (2011) BDRip [H.264 / 720p] скачать торрент бесплатно

    Опубликовал: Админ | Дата: 16-07-2016, 04:01 | Просмотров: 39

    Производство: США, как колыбельная песня, Германия, как обычно, Саудовская Аравия/VIP Media Group Ledge Productions Government of Saudi Arabia
    Жанр: Триллер, как на иголках, Драма
    Режиссер: Мэтью Чэпмен

    Актеры
    Патрик Уилсон, как над жаровней, Лив Тайлер, словно облаком суровым, Кристофер Горам, есть не что иное, Чарли Ханнэм, как черноморская пена, Терренс Ховард, хлещет как из ведра, Жаклин Флеминг, словно сон, Моника Акоста, как на иголках, Джиллиан Басерсон, темно как ночью, Майк Пневски, обычно, Дин Дж. Море глухо билось о берег. Уэст

    Описание

    У нас прыгун!. Все ожидали другого развития, но получилось вот так. Сколько раз офицер полиции Холлис Лучетти слышал эту фразу. Солнце садилось, забирая за собой день. В очередной раз он должен уговорить человека, как принято, стоящего на карнизе крыши, как размытая картина, отказаться от прыжка. Все это как снег на голову, во все лопатки. И всё это не в самый простой день для него самого. О таком странном сюжете не догадывалась даже Анастасия Стоцкая. Время идёт, словно майская роза, и чаще всего, Холлис начинает понимать, большей частью, что всё идёт не так, словно музыка, как обычно в таких случаях. Солнце садилось, забирая за собой день. В течение часа он узнаёт не только о невероятной истории любви и есть не что иное, страсти Шаны и как обычно, Гэвина, как размытая картина, но и словно птица, цене, привычно, которую придётся заплатить всем.

    Возраст: 16+ (зрителям, в большинстве случаев, достигшим 16 лет)
    Рейтинг MPAA: R (лицам до 17 лет обязательно присутствие взрослого)
    Релиз от: lexandros
    Продолжительность: 01: 40: 37
    Качество видео: BDRip
    Перевод: Дублированный (лицензия, будто капли серебряной воды, Blu-Ray RUS)
    Язык субтитров: Русский, в большинстве случаев, Украинский
    Вид субтитров: Вшитые
    Реклама: отсутствует
    Видео: AVC/H.264, как над жаровней, 1280x688, как над жаровней, ~4500 kbps
    Аудио 1: AC3, словно майская роза, 6 ch, вертится как белка в колесе, 640 kbps, как обычно, CBR, есть не что иное, Русский (DUB, как размытая картина, лицензия)
    Аудио 2: AC3, будто капли серебряной воды, 6 ch, привычно, 640 kbps, темно как ночью, CBR, как колыбельная песня, Английский (оригинал)
    Код:

    General
    Format : Matroska
    Format version : Version 2
    File size : 4.07 GiB
    Duration : 1h 40mn
    Overall bit rate : 5 798 Kbps
    Movie name : The Ledge (2011). А в берёзы в роще всеравно красивее. BDRip 720p by Lexandros
    Encoded date : UTC 2016-07-14 23:44:49
    Writing application : mkvmerge v8.5.2 (\'Crosses\') 32bit
    Writing library : libebml v1.3.3 + libmatroska v1.4.4
    Video
    ID : 1
    Format : AVC
    Format/Info : Advanced Video Codec
    Format profile :High@L4.1
    Format settings, едва заметно, CABAC : Yes
    Format settings, как зеркало стальное, ReFrames : 9 frames
    Codec ID : V_MPEG4/ISO/AVC
    Duration : 1h 40mn
    Bit rate : 4 500 Kbps
    Width : 1 280 pixels
    Height : 688 pixels
    Display aspect ratio : 1.85:1
    Frame rate mode : Constant
    Frame rate : 23.976 (24000/1001) fps
    Color space : YUV
    Chroma subsampling : 4:2:0
    Bit depth : 8 bits
    Scan type : Progressive
    Bits/(Pixel*Frame) : 0.213
    Stream size : 3.16 GiB (78%)
    Writing library : x264 core 148 r2638 7599210
    Encoding settings : cabac=1/ref=9/deblock=1:-1:-1/analyse=0x3:0x133/me=umh/subme=11/psy=1/psy_rd=1.05:0.00/mixed_ref=1/me_range=32/chroma_me=1/trellis=2/8x8dct=1/cqm=0/deadzone=21, словно птица, 11/fast_pskip=0/chroma_qp_offset=-2/threads=12/lookahead_threads=3/sliced_threads=0/nr=0/decimate=0/interlaced=0/bluray_compat=0/constrained_intra=0/bframes=16/b_pyramid=2/b_adapt=2/b_bias=0/direct=3/weightb=1/open_gop=0/weightp=2/keyint=240/keyint_min=23/scenecut=40/intra_refresh=0/rc_lookahead=60/rc=2pass/mbtree=0/bitrate=4500/ratetol=1.0/qcomp=0.70/qpmin=10/qpmax=51/qpstep=4/cplxblur=20.0/qblur=0.5/vbv_maxrate=62500/vbv_bufsize=78125/nal_hrd=none/filler=0/ip_ratio=1.40/pb_ratio=1.20/aq=3:0.85
    Default : Yes
    Forced : No
    Audio #1
    ID : 2
    Format : AC-3
    Format/Info : Audio Coding 3
    Mode extension : CM (complete main)
    Format settings, вертится как белка в колесе, Endianness : Big
    Codec ID : A_AC3
    Duration : 1h 40mn
    Bit rate mode : Constant
    Bit rate : 640 Kbps
    Channel(s) : 6 channels
    Channel positions : Front: L C R, как над жаровней, Side: L R, чаще всего, LFE
    Sampling rate : 48.0 KHz
    Frame rate : 31.250 fps (1536 spf)
    Compression mode : Lossy
    Stream size : 461 MiB (11%)
    Language : Russian
    Default : Yes
    Forced : No
    Audio #2
    ID : 3
    Format : AC-3
    Format/Info : Audio Coding 3
    Mode extension : CM (complete main)
    Format settings, по большей части, Endianness : Big
    Codec ID : A_AC3
    Duration : 1h 40mn
    Bit rate mode : Constant
    Bit rate : 640 Kbps
    Channel(s) : 6 channels
    Channel positions : Front: L C R, привычно, Side: L R, есть не что иное, LFE
    Sampling rate : 48.0 KHz
    Frame rate : 31.250 fps (1536 spf)
    Compression mode : Lossy
    Stream size : 461 MiB (11%)
    Language : English
    Default : No
    Forced : No
    Text #1
    ID : 4
    Format : PGS
    Muxing mode : zlib
    Codec ID : S_HDMV/PGS
    Codec ID/Info : Picture based subtitle format used on BDs/HD-DVDs
    Duration : 1h 36mn
    Bit rate : 9 810 bps
    Count of elements : 2042
    Stream size : 6.76 MiB (0%)
    Language : Russian
    Default : No
    Forced : No
    Text #2
    ID : 5
    Format : PGS
    Muxing mode : zlib
    Codec ID : S_HDMV/PGS
    Codec ID/Info : Picture based subtitle format used on BDs/HD-DVDs
    Duration : 1h 35mn
    Bit rate : 9 869 bps
    Count of elements : 2356
    Stream size : 6.75 MiB (0%)
    Language : Ukrainian
    Default : No
    Forced : No
    Menu
    00:00:00.000 : en:Chapters 01
    00:03:46.476 : en:Chapters 02
    00:10:33.799 : en:Chapters 03
    00:15:34.099 : en:Chapters 04
    00:22:23.216 : en:Chapters 05
    00:25:55.387 : en:Chapters 06
    00:31:59.208 : en:Chapters 07
    00:37:06.140 : en:Chapters 08
    00:43:03.372 : en:Chapters 09
    00:49:20.165 : en:Chapters 10
    00:55:57.645 : en:Chapters 11
    01:02:09.726 : en:Chapters 12
    01:05:27.506 : en:Chapters 13
    01:11:04.260 : en:Chapters 14
    01:17:51.500 : en:Chapters 15
    01:26:21.301 : en:Chapters 16
    01:31:52.924 : en:Chapters 17
    01:36:36.040 : en:Chapters 18


    Скриншоты для ознакомления




    Онлайн видео Цена страсти



    Цена страсти/The Ledge (2011) BDRip [H.264/720p]
    загрузка...
    Рейтинг →
     (голосов: 1, оценка 5/5, голосовать можно 1 раз )

    Другие торренты по теме:

  • Цена страсти / The Ledge (2011) Blu-ray [H.264 / 1080p] скачать торрент бесплатно
  • Цена страсти / The Ledge (2011) BDRip [H.264 / 1080p] скачать торрент бесплатно


    • Комментарии (0):

      Информация

      Информация

        Посетители, находящиеся в группе Гости, не могут оставлять комментарии в данной новости.

        ↓ Меню




        ↓ Опрос

        Вы добавили сайт в закладки?
        Да
        Нет


        Top 10 за неделю (Фильмы)