.
Авторизация | Регистрация

Торрент скачать бесплатно

» » Мистер Робот / Mr. Robot (2016) WEB-DL [H.264 / 720p-LQ] (сезон 2, серии 1 из 12) OMSKBIRD (обновляемая) скачать торрент бесплатно




    Мистер Робот / Mr. Robot (2016) WEB-DL [H.264 / 720p-LQ] (сезон 2, серии 1 из 12) OMSKBIRD (обновляемая) скачать торрент бесплатно

    Опубликовал: Админ | Дата: 16-07-2016, 04:01 | Просмотров: 61

    Производство: США/Universal Cable Productions
    Жанр: триллер, обычно, драма, как принято, криминал
    Режиссер: Нильс Арден Оплев

    Актеры
    Рами Малек, как принято, Брюс Олтмен, как над жаровней, Майкл Бушеми, большей частью, Карли Чаикин, вертится как белка в колесе, Самрат Чакрабарти, словно музыка, Портия Даблдэй, как правило, Маурицио Ферриньо, как зеркало стальное, Майкл Гилл, будто капли серебряной воды, Джереми С. А в берёзы в роще всеравно красивее. Холм, как обычно, Диллон Мэтьюз и словно музыка, др.

    Описание

    История молодого программиста Эллиота, словно облаком суровым, страдающего диссоциальным расстройством личности и есть не что иное, решившего, как на иголках, что единственный приемлемый для него способ взаимодействия с людьми - это профессия хакера. Все ожидали другого развития, но получилось вот так. Таким образом, словно сон, он быстро оказывается в том самом месте, в большинстве случаев, где пересекаются интересы его работодателя - фирмы, хлещет как из ведра, занимающейся кибербезопасностью, темно как ночью, - и будто капли серебряной воды, подпольных организаций, как на иголках, которые пытаются его завербовать с целью обрушения самых могучих американских корпораций.

    Продолжительность: ~00: 44: 00 серия
    Качество видео: WEB-DL
    Перевод: Многоголосый закадровый, как принято, профессиональный | OMSKBIRD
    Реклама: присутствуют аудио вставки рекламы.
    Видео: AVC/H.264, как зеркало стальное, 1280x720 (16: 9), обычно, ~3978 kbps
    Аудио # 1 Rus: AC-3, словно майская роза, 6 ch, чаще всего, 384 kbps, словно майская роза, CBR - многоголосый закадровый
    Аудио # 2 Eng: AC-3, обычно, 6 ch, словно птица, 384 kbps, будто капли серебряной воды, CBR - оригинал
    Код:

    General
    Unique ID : 202654410614195257455908131346088714048 (0x9875D1DCDDC6D39281F74C05695FDF40)
    Complete name : F:Мои ДокументыВидеоРАЗДАЧИБроБотMr.Robot S02 WEB-DL 720p (OMSKBIRD)Mr.Robot S02E01 WEB-DL 720p (OMSKBIRD).mkv
    Format : Matroska
    Format version : Version 2
    File size : 1.39 GiB
    Duration : 41mn 4s
    Overall bit rate : 4 842 Kbps
    Encoded date : UTC 2016-07-15 13:38:34
    Writing application : mkvmerge v4.0.0 (\'The Stars were mine\') сборка от Jun 6 2010 16:18:42
    Writing library : libebml v1.0.0 + libmatroska v1.0.0
    Video
    ID : 1
    Format : AVC
    Format/Info : Advanced Video Codec
    Format profile :High@L3.1
    Format settings, едва заметно, CABAC : No
    Format settings, как колыбельная песня, ReFrames : 2 frames
    Codec ID : V_MPEG4/ISO/AVC
    Duration : 41mn 4s
    Bit rate : 3 978 Kbps
    Width : 1 280 pixels
    Height : 720 pixels
    Display aspect ratio : 16:9
    Frame rate : 23.976 fps
    Color space : YUV
    Chroma subsampling : 4:2:0
    Bit depth : 8 bits
    Scan type : Progressive
    Bits/(Pixel*Frame) : 0.180
    Stream size : 1.14 GiB (82%)
    Language : English
    Default : No
    Forced : No
    Color primaries : BT.709-5, есть не что иное, BT.1361, есть не что иное, IEC 61966-2-4, как зеркало стальное, SMPTE RP177
    Transfer characteristics : BT.709-5, как зеркало стальное, BT.1361
    Matrix coefficients : BT.709-5, как над жаровней, BT.1361, словно река, IEC 61966-2-4 709, чаще всего, SMPTE RP177
    Audio #1
    ID : 2
    Format : AC-3
    Format/Info : Audio Coding 3
    Mode extension : CM (complete main)
    Format settings, словно сон, Endianness : Big
    Codec ID : A_AC3
    Duration : 41mn 4s
    Bit rate mode : Constant
    Bit rate : 384 Kbps
    Channel(s) : 6 channels
    Channel positions : Front: L C R, темно как ночью, Side: L R, чаще всего, LFE
    Sampling rate : 48.0 KHz
    Bit depth : 16 bits
    Compression mode : Lossy
    Stream size : 113 MiB (8%)
    Language : Russian
    Default : Yes
    Forced : No
    Audio #2
    ID : 3
    Format : AC-3
    Format/Info : Audio Coding 3
    Mode extension : CM (complete main)
    Format settings, словно облаком суровым, Endianness : Big
    Codec ID : A_AC3
    Duration : 41mn 4s
    Bit rate mode : Constant
    Bit rate : 384 Kbps
    Channel(s) : 6 channels
    Channel positions : Front: L C R, как обычно, Side: L R, будто капли серебряной воды, LFE
    Sampling rate : 48.0 KHz
    Bit depth : 16 bits
    Compression mode : Lossy
    Stream size : 113 MiB (8%)
    Language : English
    Default : No
    Forced : No


    Скриншоты для ознакомления




    Онлайн видео Мистер Робот



    Мистер Робот/Mr. Robot (2016) WEB-DL [H.264/720p-LQ] (сезон 2, серии 1 из 12) OMSKBIRD (обновляемая)
    загрузка...
    Рейтинг →
     (голосов: 1, оценка 3/5, голосовать можно 1 раз )

    Другие торренты по теме:

  • Мистер Робот / Mr. Robot (2015) WEB-DL [H.264 / 1080p-LQ] (сезон 1, серия 1 из 10) (NewStudio) (обновляемая) скачать через торрент бесплатно
  • Мистер Робот / Mr. Robot (2015) WEB-DLRip (сезон 1, серии 1 из 10) NewStudio (обновляемая) скачать через торрент бесплатно
  • Мистер Робот / Mr. Robot (2015) WEB-DL [H.264 / 720p-LQ] (сезон 1, серия 1 из 10) (NewStudio) (обновляемая) скачать через торрент бесплатно
  • Мистер Робот / Mr. Robot (2015) WEB-DLRip (сезон 1, серии 1 из 10) LostFilm (обновляемая) скачать через торрент бесплатно
  • Мистер Робот / Mr. Robot (2015) HDTVRip [H.264] (Сезон 1, серии 1 из 10) LostFilm [MP4|960x544] (обновляемая) скачать через торрент бесплатно
  • Мистер Робот / Mr. Robot (2015) WEB-DLRip [H.264] (Сезон 1, серии 1-2 из 10) LostFilm [MP4|1280x720] (обновляемая) скачать через торрент бесплатно
  • Мистер Робот / Mr. Robot (2015) WEB-DLRip (сезон 1, серии 1-2 из 10) LostFilm (обновляемая) скачать через торрент бесплатно
  • Мистер Робот / Mr. Robot (2015) WEB-DL [H.264 / 720p-LQ] (сезон 1, серии 1-7 из 10) LostFilm (обновляемая) скачать через торрент бесплатно


    • Комментарии (0):

      Информация

      Информация

        Посетители, находящиеся в группе Гости, не могут оставлять комментарии в данной новости.

        ↓ Меню




        ↓ Опрос

        Вы добавили сайт в закладки?
        Да
        Нет


        Top 10 за неделю (Фильмы)