.
Авторизация | Регистрация
Хочешь лучшие торренты? Добавь свой email!
Добавить

Торрент скачать бесплатно

» » Мотив / Motive (2016) HDTVRip [H.264 / 720p-LQ] (сезон 4, серии 1-8 из 13) SunshineStudio (обновляемая) торрент скачать бесплатно




    Мотив / Motive (2016) HDTVRip [H.264 / 720p-LQ] (сезон 4, серии 1-8 из 13) SunshineStudio (обновляемая) торрент скачать бесплатно

    Опубликовал: Админ | Дата: 16-07-2016, 04:01 | Просмотров: 33

    Производство: Канада
    Жанр: триллер, драма, криминал, детектив
    Режиссер: Энди Микита, Стурла Гуннарссон, Дэвид Фрэйзи

    Актеры
    Луис Феррейра, Брендан Пенни, Лорен Холли, Кристин Леман, Уоррен Кристи, Роджер Р. Кросс, Валери Тиан, Луиза Д`Оливера, Лора Меннелл, Кэмерон Брайт и др.

    Описание

    Энергичный ванкуверский детектив отдела убийств Энджи Флинн, соединяя кусочки головоломки, руководствуется не вопросом Кто это сделал?, а вопросом Зачем?. Прикольно все это наверно придумал Железный человек потратив достаточно времени. Что общего у жертвы и убийцы? Каков мотив?

    Релиз от: SunshineStudio
    Продолжительность: ~00: 45: 00 серия
    Качество видео: HDTVRip
    Перевод: Двуголосый закадровый, любительский - SunshineStudio
    Реклама: присутствуют видео, аудио вставки рекламы.
    Видео: AVC/H.264, 1280x712 (16: 9), ~3111 Кбит/сек
    Аудио: AC3, 2 канала, 192 Кбит/сек
    Код:

    Общее
    Уникальный идентификатор : 246232942876927900055277636283429251578 (0xB93EBD6368F7E496A3A03841928B69FA)
    Полное имя : H:СериалыМотивMotive.s04.HDTV.720p.SunshineStudioMotive.s04e01.HDTV.720p.SunshineStudio.mkv
    Формат : Matroska
    Версия формата : Version 4/Version 2
    Размер файла : 1, 04 Гбайт
    Продолжительность : 44 м.
    Общий поток : 3371 Кбит/сек
    Дата кодирования : UTC 2016-03-24 18:38:10
    Программа кодирования : mkvmerge v6.1.0 (\'Old Devil\') built on Mar 4 2013 09:10:42
    Библиотека кодирования : libebml v1.3.0 + libmatroska v1.4.0
    Видео
    Идентификатор : 1
    Формат : AVC
    Формат/Информация : Advanced Video Codec
    Профиль формата :High@L3.1
    Параметр CABAC формата : Да
    Параметр ReFrames формата : 4 кадра
    Идентификатор кодека : V_MPEG4/ISO/AVC
    Продолжительность : 44 м.
    Битрейт : 3111 Кбит/сек
    Ширина : 1280 пикселей
    Высота : 712 пикселей
    Соотношение сторон : 16:9
    Режим частоты кадров : Постоянный
    Частота кадров : 29, 970 (30000/1001) кадров/сек
    Частота кадров в оригинале : 29, 970 (29970/1000) кадров/сек
    Цветовое пространство : YUV
    Субдискретизация насыщенности : 4:2:0
    Битовая глубина : 8 бит
    Тип развёртки : Прогрессивная
    Бит/(Пиксели*Кадры) : 0.114
    Размер потока : 984 Мбайт (92%)
    Библиотека кодирования : x264 core 130 r2273 b3065e6
    Настройки программы : cabac=1/ref=1/deblock=1:0:0/analyse=0x3:0x113/me=hex/subme=2/psy=1/psy_rd=1.00:0.10/mixed_ref=0/me_range=16/chroma_me=1/trellis=0/8x8dct=1/cqm=0/deadzone=21, 11/fast_pskip=1/chroma_qp_offset=0/threads=6/lookahead_threads=2/sliced_threads=0/nr=0/decimate=1/interlaced=0/bluray_compat=0/constrained_intra=0/bframes=3/b_pyramid=2/b_adapt=1/b_bias=0/direct=1/weightb=1/open_gop=0/weightp=1/keyint=250/keyint_min=25/scenecut=40/intra_refresh=0/rc_lookahead=10/rc=crf/mbtree=1/crf=17.0/qcomp=0.60/qpmin=0/qpmax=69/qpstep=4/ip_ratio=1.40/aq=1:1.00
    Default : Да
    Forced : Нет
    Аудио
    Идентификатор : 2
    Формат : AC-3
    Формат/Информация : Audio Coding 3
    Расширение режима : CM (complete main)
    Параметр Endianness формата : Big
    Идентификатор кодека : A_AC3
    Продолжительность : 44 м.
    Вид битрейта : Постоянный
    Битрейт : 192 Кбит/сек
    Каналы : 2 канала
    Расположение каналов : Front: L R
    Частота : 48, 0 КГц
    Частота кадров : 31, 250 кадров/сек (1536 spf)
    Метод сжатия : С потерями
    Размер потока : 60, 7 Мбайт (6%)
    Default : Да
    Forced : Нет


    Скриншоты для ознакомления




    Онлайн видео Мотив



    Мотив/Motive (2016) HDTVRip [H.264/720p-LQ] (сезон 4, серии 1-8 из 13) SunshineStudio (обновляемая)
    загрузка...
    Рейтинг →
     (голосов: 1, оценка 4/5, голосовать можно 1 раз )

    Другие торренты по теме:

  • Мотив / Motive (2013) WEB-DL [H.264 / 720p-LQ] (сезон 1, серии 1-13 из 13) ApofysTeam
  • Мотив / Motive (2014) WEB-DL [H.264 / 720p-LQ] (сезон 2, серии 1-13 из 13) ApofysTeam


    • Комментарии (0):

      Информация

      Информация

        Посетители, находящиеся в группе Гости, не могут оставлять комментарии в данной новости.

        ↓ Меню




        ↓ Опрос

        Вы добавили сайт в закладки?
        Да
        Нет


        Top 10 за месяц (Фильмы)