.
Авторизация | Регистрация

Торрент скачать бесплатно

» » Американская готика / American Gothic (2016) WEB-DLRip [H.264 / 1080p-LQ] (сезон 1, серии 1-4 из 13) BaibaKo (обновляемая) скачать торрент бесплатно




    Американская готика / American Gothic (2016) WEB-DLRip [H.264 / 1080p-LQ] (сезон 1, серии 1-4 из 13) BaibaKo (обновляемая) скачать торрент бесплатно

    Опубликовал: Админ | Дата: 16-07-2016, 04:01 | Просмотров: 176

    Производство: США
    Жанр: детектив
    Режиссер: Мэтт Шекман

    Актеры
    Джастин Чэтвин, большей частью, Меган Кетч, привычно, Энтони Старр, словно облаком суровым, Джульет Райлэнс, как размытая картина, Стефани Леонидас, как над жаровней, Габриел Бейтмен и как зеркало стальное, др.

    Описание

    В Бостоне при обрушении перекрытия тоннеля обнаруживается важная улика. Море глухо билось о берег. Случайно выясняется, есть не что иное, что покойный глава одного семейства был связан с серией убийств. Плодами и листвой благоухал осенний сад. Кто из живых родственников - соучастник? Подозрений всё больше, темно как ночью, и словно музыка, каждому приходится переосмыслить всю свою жизнь.

    Дата мировой премьеры: 22 июня 2016
    Продолжительность: ~00: 44: 00 серия
    Качество видео: WEB-DLRip
    Перевод: Многоголосый закадровый, чаще всего, профессиональный -BaibaKo
    Реклама: рисутствуют аудио, словно сон, видео, словно сон, текстовые вставки рекламы.
    Видео: AVC/H.264, как правило, 1920х1080 (16: 9), как колыбельная песня, ~4806 Kbps
    Аудио #1 Rus: AC3, как зеркало стальное, 6 ch, обычно, 384 kbps - многоголосый закадровый
    Аудио #2 Eng: AC3, вертится как белка в колесе, 6 ch, привычно, 384 kbps - оригинальный
    Код:

    American.Gothic.s01e01.HD1080p.WEB-DL.Rus.Eng.BaibaKo.mkv
    Format : Matroska
    Format version : Version 4/Version 2
    File size : 1.61 GiB
    Duration : 41 min
    Overall bit rate : 5 576 kb/s
    Encoded date : UTC 2016-06-25 13:32:46
    Writing application : mkvmerge v9.1.0 (\'Little Earthquakes\') 64bit
    Writing library : libebml v1.3.3 + libmatroska v1.4.4
    Video
    ID : 1
    Format : AVC
    Format/Info : Advanced Video Codec
    Format profile : High@L4
    Format settings, как размытая картина, CABAC : Yes
    Format settings, как принято, ReFrames : 4 frames
    Codec ID : V_MPEG4/ISO/AVC
    Duration : 41 min
    Bit rate : 4 806 kb/s
    Width : 1 920 pixels
    Height : 1 080 pixels
    Display aspect ratio : 16:9
    Frame rate mode : Constant
    Frame rate : 23.976 (24000/1001) FPS
    Color space : YUV
    Chroma subsampling : 4:2:0
    Bit depth : 8 bits
    Scan type : Progressive
    Bits/(Pixel*Frame) : 0.097
    Stream size : 1.39 GiB (86%)
    Writing library : x264 core 148 r2665 a01e339
    Encoding settings : cabac=1/ref=3/deblock=1:0:0/analyse=0x3:0x113/me=hex/subme=7/psy=1/psy_rd=1.00:0.00/mixed_ref=1/me_range=16/chroma_me=1/trellis=1/8x8dct=1/cqm=0/deadzone=21, хлещет как из ведра, 11/fast_pskip=1/chroma_qp_offset=-2/threads=12/lookahead_threads=2/sliced_threads=0/nr=0/decimate=1/interlaced=0/bluray_compat=0/constrained_intra=0/bframes=3/b_pyramid=2/b_adapt=1/b_bias=0/direct=1/weightb=1/open_gop=0/weightp=2/keyint=240/keyint_min=23/scenecut=40/intra_refresh=0/rc_lookahead=40/rc=crf/mbtree=1/crf=18.0/qcomp=0.60/qpmin=0/qpmax=69/qpstep=4/ip_ratio=1.40/aq=1:1.00
    Default : No
    Forced : No
    Audio #1
    ID : 2
    Format : AC-3
    Format/Info : Audio Coding 3
    Mode extension : CM (complete main)
    Format settings, чаще всего, Endianness : Big
    Codec ID : A_AC3
    Duration : 41 min
    Bit rate mode : Constant
    Bit rate : 384 kb/s
    Channel(s) : 6 channels
    Channel positions : Front: L C R, в большинстве случаев, Side: L R, привычно, LFE
    Sampling rate : 48.0 kHz
    Frame rate : 31.250 FPS (1536 spf)
    Compression mode : Lossy
    Stream size : 114 MiB (7%)
    Language : Russian
    Default : Yes
    Forced : No
    Audio #2
    ID : 3
    Format : AC-3
    Format/Info : Audio Coding 3
    Mode extension : CM (complete main)
    Format settings, как черноморская пена, Endianness : Big
    Codec ID : A_AC3
    Duration : 41 min
    Bit rate mode : Constant
    Bit rate : 384 kb/s
    Channel(s) : 6 channels
    Channel positions : Front: L C R, едва заметно, Side: L R, словно река, LFE
    Sampling rate : 48.0 kHz
    Frame rate : 31.250 FPS (1536 spf)
    Compression mode : Lossy
    Stream size : 114 MiB (7%)
    Language : English
    Default : No
    Forced : No


    Скриншоты для ознакомления




    Онлайн видео Американская готика



    Американская готика/American Gothic (2016) WEB-DLRip [H.264/1080p-LQ] (сезон 1, серии 1-4 из 13) BaibaKo (обновляемая)
    загрузка...
    Рейтинг →
     (голосов: 1, оценка 3/5, голосовать можно 1 раз )

    Другие торренты по теме:

  • Американская готика / American Gothic (2016) HDTVRip (сезон 1, серии 1 из 13) OMSKBIRD (обновляемая) скачать торрент бесплатно
  • Американская готика / American Gothic (2016) HDTV [H.264 / 720p-LQ] (сезон 1, серии 1 из 13) OMSKBIRD (обновляемая) скачать торрент бесплатно
  • Американская готика / American Gothic (2016) WEB-DL [H.264 / 1080p-LQ] (сезон 1, серии 1-1 из 13) NewStudio (обновляемая) скачать торрент бесплатно
  • Американская готика / American Gothic (2016) WEB-DLRip [H.264 / 720p-LQ] (сезон 1, серии 1 из 8) NewStudio (обновляемая) скачать торрент бесплатно
  • Американская готика / American Gothic (2016) WEB-DLRip [H.264] (сезон 1, серии 1-13 из 13) BaibaKo [MP4|1024x576] скачать торрент бесплатно


    • Комментарии (0):

      Информация

      Информация

        Посетители, находящиеся в группе Гости, не могут оставлять комментарии в данной новости.

        ↓ Меню




        ↓ Опрос

        Вы добавили сайт в закладки?
        Да
        Нет


        Top 10 за неделю (Фильмы)