.
Авторизация | Регистрация
Хочешь лучшие торренты? Добавь свой email!
Добавить

Торрент скачать бесплатно

» » Закон мышеловки (2007) WEBRip (серии 1-8 из 8) торрент скачать бесплатно




    Закон мышеловки (2007) WEBRip (серии 1-8 из 8) торрент скачать бесплатно

    Опубликовал: Админ | Дата: 16-07-2016, 04:01 | Просмотров: 47

    Производство: Россия Студия Арсенал-ТВ по заказу ЗАО НТВ-Кино
    Жанр: триллер, драма
    Режиссер: Александр Якимчук

    Актеры
    Анатолий Пашинин, Илья Носков, Анна Лутцева, Валерий Соловьёв, Юлия Горшенина, Ринат Ибрагимов, Алексей Серебряков, Алексей Горбунов, Леонид Неведомский, Арнис Лицитис и др.

    Описание

    Молодой ученый Вадим воплотил мечту нескольких поколений кибернетиков, создав компьютерный интеллект — электронную копию человеческого мозга. Но даже сам изобретатель не знает, какая цена заплачена за его открытие.Разгадать его план берется сыщик-теоретик Сергей, недавно прикомандированный к оперативной группе. Еще чуть-чуть, и две эти линии сплетутся в смертельный клубок. О таком странном сюжете не догадывалась даже Светлана Лобода. Какая связь между безжалостным преступником и компьютерным гением? Какие тайны хранит прошлое Вадима? Что скрывают от него те, кого он считал самыми близкими людьми? Он должен узнать правду. Ведь убийцей может быть каждый. Верить нельзя никому!

    Возраст: 16+ (зрителям, достигшим 16 лет)
    Продолжительность: ~ 00: 52: 00 серия
    Качество видео: WEBRip
    Видео: Xvid, 720x400 (16: 9), ~1293 Kbps
    Аудио: AC3, 2 ch, 192 kbps, CBR
    Код:

    Общее
    Полное имя : D:Мои фильмыZakon_myshelovki_1-8iz8_2007_XviD_WEBRipZakon_myshelovki_1_WEBRip.avi
    Формат : AVI
    Формат/Информация : Audio Video Interleave
    Размер файла : 556 Мбайт
    Продолжительность : 51 м.
    Общий поток : 1495 Кбит/сек
    Библиотека кодирования : VirtualDub build 35491/release
    Видео
    Идентификатор : 0
    Формат : MPEG-4 Visual
    Профиль формата : Advanced Simple@L5
    Параметр BVOP формата : 2
    Параметр QPel формата : Нет
    Параметр GMC формата : Без точки перехода
    Параметр матрицы формата : Default (H.263)
    Идентификатор кодека : XVID
    Идентификатор кодека/Подсказка : XviD
    Продолжительность : 51 м.
    Битрейт : 1293 Кбит/сек
    Ширина : 720 пикселей
    Высота : 400 пикселей
    Соотношение сторон : 16:9
    Частота кадров : 25, 000 кадров/сек
    Цветовое пространство : YUV
    Субдискретизация насыщенности : 4:2:0
    Битовая глубина : 8 бит
    Тип развёртки : Прогрессивная
    Метод сжатия : С потерями
    Бит/(Пиксели*Кадры) : 0.180
    Размер потока : 481 Мбайт (87%)
    Библиотека кодирования : XviD 67
    Аудио
    Идентификатор : 1
    Формат : AC-3
    Формат/Информация : Audio Coding 3
    Расширение режима : CM (complete main)
    Параметр Endianness формата : Big
    Идентификатор кодека : 2000
    Продолжительность : 51 м.
    Вид битрейта : Постоянный
    Битрейт : 192 Кбит/сек
    Каналы : 2 канала
    Расположение каналов : Front: L R
    Частота : 48, 0 КГц
    Частота кадров : 31, 250 кадров/сек (1536 spf)
    Метод сжатия : С потерями
    Размер потока : 71, 4 Мбайт (13%)
    Выравнивание : Разделение по промежуткам
    Продолжительность промежутка : 40 мс. (1, 00 видеокадр)
    Время предзагрузки промежутка : 500 мс.


    Скриншоты для ознакомления




    Онлайн видео Закон мышеловки (2007) WEBRip (серии 1



    Закон мышеловки (2007) WEBRip (серии 1-8 из 8)
    загрузка...
    Рейтинг →
     (голосов: 1, оценка 5/5, голосовать можно 1 раз )

    Другие торренты по теме:

  • Клейтон Кристенсен | Закон успешных инноваций (2017) [FB2, EPUB]
  • Закон есть закон / La legge è legge (1958) DVDRip [H.264]
  • Закон есть закон / La legge legge (1958) DVD9
  • Михаил Задорнов. Неформат 60 (День рождения Путина, закон Роттенберга и перлы Кличко) (2014.10.10) WEB-DLRip скачать через торрент бесплатно
  • Человек и закон (05.12.2014) SATRip скачать через торрент бесплатно
  • Человек и закон (23.01.2015) SATRip
  • Человек и закон (30.01.2015) SATRip скачать через торрент бесплатно
  • Человек и закон (06.02.2015) SATRip скачать через торрент бесплатно


    • Комментарии (0):

      Информация

      Информация

        Посетители, находящиеся в группе Гости, не могут оставлять комментарии в данной новости.

        ↓ Меню




        ↓ Опрос

        Вы добавили сайт в закладки?
        Да
        Нет


        Top 10 за месяц (Фильмы)