.
Авторизация | Регистрация
Хочешь лучшие торренты? Добавь свой email!
Добавить

Торрент скачать бесплатно

» » Форс-мажоры / Костюмы в законе / Suits (2016) WEB-DL [H.264 / 1080p -LQ] (сезон 6, серии 1 из ) NewStudio (обновляемая) торрент скачать бесплатно




    Форс-мажоры / Костюмы в законе / Suits (2016) WEB-DL [H.264 / 1080p -LQ] (сезон 6, серии 1 из ) NewStudio (обновляемая) торрент скачать бесплатно

    Опубликовал: Админ | Дата: 15-07-2016, 04:00 | Просмотров: 28

    Производство: США/Hypnotic, Universal Cable Productions, Dutch Oven
    Жанр: драма, комедия
    Режиссер: Антон Кроппер, Кевин Брэй, Майкл Смит

    Актеры
    Гэбриел Махт, Патрик Джей Адамс, Джина Торрес, Рик Хоффман, Меган Маркл, Сара Рафферти, Аманда Шулл, Макс Топплин, Дэвид Костабайл, Д.Б. Вудсайд и др.

    Описание

    Форс-мажоры — сериал о тандеме профессионального юриста Харви Спектра и студента-лжеца Майка Росса.
    Майк и Харви – это команда победителей. Хотя Майк и гений, ему все еще надо много чего узнать о законах. Харви кажется бесстрастной и хладнокровной акулой бизнеса, однако, сочувствие клиентам и озабоченность их делами Майка, поможет Харви вспомнить, зачем он в свое время пришел в юриспруденцию. Другими союзниками Майка в фирме станет лучший помощник юриста в компании Рейчел и здравомыслящая ассистентка Харви Донна. Доказывая, что они неутомимая парочка и бесценны для фирмы, Майку и Харви приходится хранить свою тайну от всех, в том числе и от начальника Харви, Джессики и заклятого врага Харви Луиса, который, кажется, поставил себе целью сделать жизнь Майкла невыносимой.

    Возраст: 16+ (зрителям, достигшим 16 лет)
    Продолжительность: ~00: 42: 00 серия
    Качество видео: WEB-DL 1080p
    Перевод: Двухголосый закадровый, профессиональный -NewStudio
    Автор перевода: Ptyza
    Видео: H.264/AVC, 1920x1080 (16: 9), ~4775 kb/s
    Аудио Rus: AC-3, 48, 0 kHz, 2 ch, 384 kb/s — двухголосый закадровый
    Аудио Eng: AC-3, 48, 0 kHz, 6 ch, 384 kb/s — оригинал
    Код:

    Общее
    Уникальный идентификатор : 240213165454802907256764874210321221084 (0xB4B75F7258CDA7D0BFA36380EAEDC5DC)
    Полное имя : D:Форс-мажоры (сезон любимого сериала 6) Suits (2016) WEB-DL 1080p - NewStudioSuits.s06e01.WEBDL.1080p.NewStudio.TV (1).mkv
    Формат : Matroska
    Версия формата : Version 4/Version 2
    Размер файла : 1, 63 Гбайт
    Продолжительность : 41 м.
    Общий поток : 5545 Кбит/сек
    Название фильма : Suits.S06E01.WEBDL.1080p.Rus.Eng.DV.NewStudio/NNM-Club
    Дата кодирования : UTC 2016-07-14 22:35:21
    Программа кодирования : mkvmerge v8.2.0 (\'World of Adventure\') 64bit
    Библиотека кодирования : libebml v1.3.1 + libmatroska v1.4.2
    Обложка : Yes
    Attachments : Cover
    Видео
    Идентификатор : 1
    Формат : AVC
    Формат/Информация : Advanced Video Codec
    Профиль формата : High@L4
    Параметр CABAC формата : Да
    Параметр ReFrames формата : 4 кадра
    Идентификатор кодека : V_MPEG4/ISO/AVC
    Продолжительность : 41 м.
    Битрейт : 4775 Кбит/сек
    Ширина : 1920 пикселей
    Высота : 1080 пикселей
    Соотношение сторон : 16:9
    Режим частоты кадров : Постоянный
    Частота кадров : 23, 976 (24000/1001) кадра/сек
    Цветовое пространство : YUV
    Субдискретизация насыщенности : 4:2:0
    Битовая глубина : 8 бит
    Тип развёртки : Прогрессивная
    Бит/(Пиксели*Кадры) : 0.096
    Размер потока : 1, 40 Гбайт (86%)
    Язык : English
    Default : Да
    Forced : Нет
    Цветовой диапазон : Limited
    Основные цвета : BT.709
    Характеристики трансфера : BT.709
    Коэффициенты матрицы : BT.709
    Аудио #1
    Идентификатор : 2
    Формат : AC-3
    Формат/Информация : Audio Coding 3
    Расширение режима : CM (complete main)
    Параметр Endianness формата : Big
    Идентификатор кодека : A_AC3
    Продолжительность : 41 м.
    Вид битрейта : Постоянный
    Битрейт : 384 Кбит/сек
    Каналы : 6 каналов
    Расположение каналов : Front: L C R, Side: L R, LFE
    Частота : 48, 0 КГц
    Частота кадров : 31, 250 кадров/сек (1536 spf)
    Метод сжатия : С потерями
    Размер потока : 115 Мбайт (7%)
    Заголовок : NewStudio
    Язык : Russian
    Default : Да
    Forced : Нет
    Аудио #2
    Идентификатор : 3
    Формат : AC-3
    Формат/Информация : Audio Coding 3
    Расширение режима : CM (complete main)
    Параметр Endianness формата : Big
    Идентификатор кодека : A_AC3
    Продолжительность : 41 м.
    Вид битрейта : Постоянный
    Битрейт : 384 Кбит/сек
    Каналы : 6 каналов
    Расположение каналов : Front: L C R, Side: L R, LFE
    Частота : 48, 0 КГц
    Частота кадров : 31, 250 кадров/сек (1536 spf)
    Метод сжатия : С потерями
    Размер потока : 115 Мбайт (7%)
    Язык : English
    Default : Нет
    Forced : Нет


    Скриншоты для ознакомления




    Онлайн видео Форс-мажоры



    Форс-мажоры/Костюмы в законе/Suits (2016) WEB-DL [H.264/1080p -LQ] (сезон 6, серии 1 из ) NewStudio (обновляемая)
    загрузка...
    Рейтинг →
     (голосов: 1, оценка 3/5, голосовать можно 1 раз )

    Другие торренты по теме:

  • Форс-мажоры / Костюмы в законе / Suits (2014) WEB-DLRip (Сезон 4 / Серии 1-10 из 16) To4ka (обновляемая)
  • Форс-мажоры / Костюмы в законе / Suits (2014) WEB-DLRip (сезон 4, серии 1-11 из 16) NewStudio (обновляемая)
  • Форс-мажоры / Костюмы в законе / Suits (2014) HDTVRip [H.264 / 720p-LQ] (сезон 4, серии 1-11 из 16) [EN] (обновляемая)
  • Форс-мажоры / Костюмы в законе / Suits (2014) WEB-DL [H.264 / 720p-LQ] (сезон 4, серии 1-12 из 16) NewStudio (обновляемая)
  • Форс-мажоры / Костюмы в законе / Suits (2015) WEB-DLRip (сезон 5, серии 1 из ) NewStudio (обновляемая) скачать через торрент бесплатно
  • Форс-мажоры / Костюмы в законе / Suits (2015) WEB-DLRip (сезон 5, серии 1 из 16) To4ka (обновляемая) скачать через торрент бесплатно
  • Форс-мажоры / Костюмы в законе / Suits (2015) WEB-DL [H.264 / 720p-LQ] (сезон 5, серия 1 из 16) (NewStudio) (обновляемая) скачать через торрент бесплатно
  • Форс-мажоры / Костюмы в законе / Suits (2015) WEB-DL [H.264 / 1080p-LQ] (сезон 5, серии 1-4 из 16) (NewStudio) (обновляемая) скачать через торрент бесплатно


    • Комментарии (0):

      Информация

      Информация

        Посетители, находящиеся в группе Гости, не могут оставлять комментарии в данной новости.

        ↓ Меню




        ↓ Опрос

        Вы добавили сайт в закладки?
        Да
        Нет


        Top 10 за месяц (Фильмы)