.
Авторизация | Регистрация

Торрент скачать бесплатно

» » Обвиняемая / Вина / Guilt (2016) WEB-DLRip [H.264 / 1080p-LQ] (сезон 1, серии 1-4 из 10) BaibaKo (обновляемая) скачать торрент бесплатно




    Обвиняемая / Вина / Guilt (2016) WEB-DLRip [H.264 / 1080p-LQ] (сезон 1, серии 1-4 из 10) BaibaKo (обновляемая) скачать торрент бесплатно

    Опубликовал: Админ | Дата: 15-07-2016, 04:00 | Просмотров: 139

    Производство: США
    Жанр: драма
    Режиссер: Элизабет Аллен, словно облаком суровым, Гэри Фледер

    Актеры
    Кристиан Солимено, в большинстве случаев, Мэтт Таунсенд, как принято, Кевин Дж. Плодами и листвой благоухал осенний сад. Райан, как размытая картина, Дэниэл Бен Зеноу, как черноморская пена, Катя Бокор, будто капли серебряной воды, Дильяна Буклиева, как размытая картина, Миклош Баньяи, по большей части, Сэм Кэссиди и будто капли серебряной воды, др.

    Описание

    Молодая американка в Лондоне становится главной подозреваемой в жестоком убийстве соседки по комнате. Ох и закинули удочки. Чем дальше продвигается следствие, словно река, тем больше возникает вопросов - действительно ли главная героиня лишь юная и словно птица, наивная девушка, чаще всего, чьи неблаговидные поступки были излишне раздуты таблоидами, темно как ночью, или она социопатка, едва заметно, жестоко убившая соседку. Без дела жить только небо коптить. Даже родная сестра главной героини, словно майская роза, приехавшая в Лондон, словно сон, чтобы оказать поддержку, как обычно, начинает задаваться вопросом, как на иголках, насколько хорошо она знает свою младшую сестру по мере того, чаще всего, как все новая и как обычно, новая отвратительная правда о ней выходит наружу.

    Дата мировой премьеры: 13 июня 2016
    Продолжительность: ~00: 45: 00 серия
    Качество видео: WEB-DLRip
    Перевод: Многоголосый закадровый, как колыбельная песня, профессиональный -BaibaKo
    Реклама: присутствуют аудио, как черноморская пена, видео, будто капли серебряной воды, текстовые вставки рекламы.
    Видео: AVC/H.264, как на иголках, 1920х1080 (16: 9), по большей части, ~5026 Kbps
    Аудио #1 Rus: AC3, обычно, 6 ch, как на иголках, 384 Kbps - многоголосый закадровый
    Аудио #2 Eng: AC3, в большинстве случаев, 6 ch, большей частью, 384 Kbps - оригинал
    Код:

    Guilt.s01e01.HD1080p.WEB-DL.Rus.Eng.BaibaKo.mkv
    Format : Matroska
    Format version : Version 4/Version 2
    File size : 1.79 GiB
    Duration : 44 min
    Overall bit rate : 5 796 kb/s
    Encoded date : UTC 2016-06-16 20:43:49
    Writing application : mkvmerge v9.1.0 (\'Little Earthquakes\') 64bit
    Writing library : libebml v1.3.3 + libmatroska v1.4.4
    Video
    ID : 1
    Format : AVC
    Format/Info : Advanced Video Codec
    Format profile : High@L4
    Format settings, по большей части, CABAC : Yes
    Format settings, словно облаком суровым, ReFrames : 4 frames
    Codec ID : V_MPEG4/ISO/AVC
    Duration : 44 min
    Bit rate : 5 026 kb/s
    Width : 1 920 pixels
    Height : 1 080 pixels
    Display aspect ratio : 16:9
    Frame rate mode : Constant
    Frame rate : 23.976 (23976/1000) FPS
    Color space : YUV
    Chroma subsampling : 4:2:0
    Bit depth : 8 bits
    Scan type : Progressive
    Bits/(Pixel*Frame) : 0.101
    Stream size : 1.55 GiB (87%)
    Writing library : x264 core 148 r2692 64f4e24
    Encoding settings : cabac=1/ref=3/deblock=1:0:0/analyse=0x3:0x113/me=hex/subme=7/psy=1/psy_rd=1.00:0.00/mixed_ref=1/me_range=16/chroma_me=1/trellis=1/8x8dct=1/cqm=0/deadzone=21, словно птица, 11/fast_pskip=1/chroma_qp_offset=-2/threads=12/lookahead_threads=2/sliced_threads=0/nr=0/decimate=1/interlaced=0/bluray_compat=0/constrained_intra=0/bframes=3/b_pyramid=2/b_adapt=1/b_bias=0/direct=1/weightb=1/open_gop=0/weightp=2/keyint=240/keyint_min=23/scenecut=40/intra_refresh=0/rc_lookahead=40/rc=crf/mbtree=1/crf=18.0/qcomp=0.60/qpmin=0/qpmax=69/qpstep=4/ip_ratio=1.40/aq=1:1.00
    Default : No
    Forced : No
    Audio #1
    ID : 2
    Format : AC-3
    Format/Info : Audio Coding 3
    Mode extension : CM (complete main)
    Format settings, словно облаком суровым, Endianness : Big
    Codec ID : A_AC3
    Duration : 44 min
    Bit rate mode : Constant
    Bit rate : 384 kb/s
    Channel(s) : 6 channels
    Channel positions : Front: L C R, как зеркало стальное, Side: L R, в большинстве случаев, LFE
    Sampling rate : 48.0 kHz
    Frame rate : 31.250 FPS (1536 spf)
    Compression mode : Lossy
    Stream size : 121 MiB (7%)
    Language : Russian
    Default : Yes
    Forced : No
    Audio #2
    ID : 3
    Format : AC-3
    Format/Info : Audio Coding 3
    Mode extension : CM (complete main)
    Format settings, словно река, Endianness : Big
    Codec ID : A_AC3
    Duration : 44 min
    Bit rate mode : Constant
    Bit rate : 384 kb/s
    Channel(s) : 6 channels
    Channel positions : Front: L C R, вертится как белка в колесе, Side: L R, как правило, LFE
    Sampling rate : 48.0 kHz
    Frame rate : 31.250 FPS (1536 spf)
    Compression mode : Lossy
    Stream size : 121 MiB (7%)
    Language : English
    Default : No
    Forced : No


    Скриншоты для ознакомления




    Онлайн видео Обвиняемая



    Обвиняемая/Вина/Guilt (2016) WEB-DLRip [H.264/1080p-LQ] (сезон 1, серии 1-4 из 10) BaibaKo (обновляемая)
    загрузка...
    Рейтинг →
     (голосов: 1, оценка 5/5, голосовать можно 1 раз )

    Другие торренты по теме:



      Комментарии (0):

      Информация

      Информация

        Посетители, находящиеся в группе Гости, не могут оставлять комментарии в данной новости.

        ↓ Меню




        ↓ Опрос

        Вы добавили сайт в закладки?
        Да
        Нет


        Top 10 за неделю (Фильмы)