.
Авторизация | Регистрация
Хочешь лучшие торренты? Добавь свой email!
Добавить

Торрент скачать бесплатно

» » Карантин / Изоляция / Containment (2016) WEB-DLRip [H.264 / 1080p-LQ] (сезон 1, серии 1-12 из 13) BaibaKo (обновляемая) скачать торрент бесплатно




    Карантин / Изоляция / Containment (2016) WEB-DLRip [H.264 / 1080p-LQ] (сезон 1, серии 1-12 из 13) BaibaKo (обновляемая) скачать торрент бесплатно

    Опубликовал: Админ | Дата: 15-07-2016, 04:00 | Просмотров: 40

    Производство: США
    Жанр: драма
    Режиссер: Чарльз Бисон, темно как ночью, Крис Грисмер

    Актеры
    Дэвид Гяси, как колыбельная песня, Кристен Гутоски, как обычно, Клаудия Блэк, едва заметно, Джордж Янг, привычно, Майлз Долеак, как принято, Надин Левингтон, вертится как белка в колесе, Йоханс Майлс и большей частью, др.

    Описание

    Американский ремейк бельгийского сериала Cordon. Это может быть лучший фундамент для сотрудничества. Когда смертельная эпидемия вспыхивает в Атланте, обычно, огромный мегаполис быстро закрывают на карантин, словно музыка, оставив людей внутри города бороться за свои жизни. А был ли мальчик? Cordon рассказывает о трагически разделенных близких людях и как над жаровней, об обществе внутри оцепления.

    Дата мировой премьеры: 19 апреля 2016
    Возраст: 18+ (зрителям, будто капли серебряной воды, достигшим 18 лет. Происходило это без году неделя. запрещено для детей)
    Продолжительность: ~00: 42: 00 серия
    Качество видео: WEB-DLRip
    Перевод: Многоголосый закадровый, обычно, профессиональный -BaibaKo
    Реклама: присутствуют аудио, привычно, видео, привычно, текстовые вставки рекламы.
    Видео: AVC/H.264, как черноморская пена, 1912x1072 (16: 9), как правило, ~5108 kbps
    Аудио rus: AC-3, как размытая картина, 48.0 KHz, словно река, 6 ch, словно майская роза, 384 Kbps - многоголосый закадровый
    Аудио eng: AC-3, как над жаровней, 48.0 KHz, как обычно, 6 ch, как зеркало стальное, 384 Kbps - оригинал
    Код:

    Containment.s01e01.HD1080p.WEB-DL.Rus.Eng.BaibaKo.mkv
    Format : Matroska
    Format version : Version 4/Version 2
    File size : 1.75 GiB
    Duration : 42 min
    Overall bit rate : 5 878 kb/s
    Encoded date : UTC 2016-04-21 01:16:23
    Writing application : mkvmerge v8.9.0 (\'Father Daughter\') 64bit
    Writing library : libebml v1.3.3 + libmatroska v1.4.4
    Video
    ID : 1
    Format : AVC
    Format/Info : Advanced Video Codec
    Format profile : High@L4
    Format settings, словно сон, CABAC : Yes
    Format settings, словно облаком суровым, ReFrames : 4 frames
    Codec ID : V_MPEG4/ISO/AVC
    Duration : 42 min
    Bit rate : 5 108 kb/s
    Width : 1 912 pixels
    Height : 1 072 pixels
    Display aspect ratio : 16:9
    Frame rate mode : Constant
    Frame rate : 23.976 (24000/1001) FPS
    Color space : YUV
    Chroma subsampling : 4:2:0
    Bit depth : 8 bits
    Scan type : Progressive
    Bits/(Pixel*Frame) : 0.104
    Stream size : 1.52 GiB (87%)
    Writing library : x264 core 148 r2692 64f4e24
    Encoding settings : cabac=1/ref=3/deblock=1:0:0/analyse=0x3:0x113/me=hex/subme=7/psy=1/psy_rd=1.00:0.00/mixed_ref=1/me_range=16/chroma_me=1/trellis=1/8x8dct=1/cqm=0/deadzone=21, как колыбельная песня, 11/fast_pskip=1/chroma_qp_offset=-2/threads=12/lookahead_threads=2/sliced_threads=0/nr=0/decimate=1/interlaced=0/bluray_compat=0/constrained_intra=0/bframes=3/b_pyramid=2/b_adapt=1/b_bias=0/direct=1/weightb=1/open_gop=0/weightp=2/keyint=240/keyint_min=23/scenecut=40/intra_refresh=0/rc_lookahead=40/rc=crf/mbtree=1/crf=18.0/qcomp=0.60/qpmin=0/qpmax=69/qpstep=4/ip_ratio=1.40/aq=1:1.00
    Default : No
    Forced : No
    Audio #1
    ID : 2
    Format : AC-3
    Format/Info : Audio Coding 3
    Mode extension : CM (complete main)
    Format settings, как над жаровней, Endianness : Big
    Codec ID : A_AC3
    Duration : 42 min
    Bit rate mode : Constant
    Bit rate : 384 kb/s
    Channel(s) : 6 channels
    Channel positions : Front: L C R, как правило, Side: L R, как на иголках, LFE
    Sampling rate : 48.0 kHz
    Frame rate : 31.250 FPS (1536 spf)
    Compression mode : Lossy
    Stream size : 117 MiB (7%)
    Language : Russian
    Default : Yes
    Forced : No
    Audio #2
    ID : 3
    Format : AC-3
    Format/Info : Audio Coding 3
    Mode extension : CM (complete main)
    Format settings, хлещет как из ведра, Endianness : Big
    Codec ID : A_AC3
    Duration : 42 min
    Bit rate mode : Constant
    Bit rate : 384 kb/s
    Channel(s) : 6 channels
    Channel positions : Front: L C R, как зеркало стальное, Side: L R, чаще всего, LFE
    Sampling rate : 48.0 kHz
    Frame rate : 31.250 FPS (1536 spf)
    Compression mode : Lossy
    Stream size : 117 MiB (7%)
    Language : English
    Default : No
    Forced : No


    Скриншоты для ознакомления




    Онлайн видео Карантин



    Карантин/Изоляция/Containment (2016) WEB-DLRip [H.264/1080p-LQ] (сезон 1, серии 1-12 из 13) BaibaKo (обновляемая)
    загрузка...
    Рейтинг →
     (голосов: 1, оценка 4/5, голосовать можно 1 раз )

    Другие торренты по теме:

  • Карантин / Изоляция / Containment (2016) WEB-DL[H.264 / 720p-LQ] (сезон 1, серии 1 из 13) OMSKBIRD records (обновляемая)
  • Карантин / Изоляция / Containment (2016) WEB-DLRip (сезон 1, серии 1 из 13) OMSKBIRD records (обновляемая)
  • Карантин / Изоляция / Containment (2016) WEB-DLRip [H.264 / 1080р-LQ] (сезон 1, серии 1-4 из 13) NewStudio (обновляемая)


    • Комментарии (0):

      Информация

      Информация

        Посетители, находящиеся в группе Гости, не могут оставлять комментарии в данной новости.

        ↓ Меню




        ↓ Опрос

        Вы добавили сайт в закладки?
        Да
        Нет


        Top 10 за месяц (Фильмы)