.
Авторизация | Регистрация
Хочешь лучшие торренты? Добавь свой email!
Добавить

Торрент скачать бесплатно

» » Рэй Донован / Ray Donovan (2016) HDTVRip (сезон 4, серии 1-4 из 12) ColdFilm (обновляемая) торрент скачать бесплатно




    Рэй Донован / Ray Donovan (2016) HDTVRip (сезон 4, серии 1-4 из 12) ColdFilm (обновляемая) торрент скачать бесплатно

    Опубликовал: Админ | Дата: 15-07-2016, 04:00 | Просмотров: 156

    Производство: США
    Жанр: драма, криминал
    Режиссер: Майкл Аппендаль, Дэниэл Эттиэс, Джон Дал

    Актеры
    Лив Шрайбер, Паула Малкомсон, Эдди Марсан, Дэш Майок, Джон Войт, Стивен Бауэр, Кэтрин Менниг, Пуч Холл, Кэррис Дорси, Девон Бэгби и др.

    Описание

    Рэй Донован решает любые проблемы богатых и знаменитых людей Лос-Анджелеса, но при этом не может разобраться со своей собственной семьей...

    Возраст: +18 (зрителям, достигшим 18 лет)
    Релиз от: ColdFilm
    Продолжительность: ~00: 58: 00 серия
    Качество видео: HDTVRip
    Перевод: Двуголосый закадровый, любительский - ColdFilm
    Реклама: присутствуют аудио, видео вставки рекламы.
    Видео: Xvid, 704х396 (16: 9), ~1043 Кбит/сек
    Аудио: MP3, 2 канала, 128 Кбит/сек
    Код:

    Общее
    Полное имя : H:СериалыРэй Донован (2016) 4 сезон любимого сериалаRay DonovanRay.Donovan.S04E01.400p.HDTV.ColdFilm.avi
    Формат : AVI
    Формат/Информация : Audio Video Interleave
    Размер файла : 493 Мбайт
    Продолжительность : 58 м.
    Общий поток : 1183 Кбит/сек
    Программа кодирования : Lavf54.63.104
    Видео
    Идентификатор : 0
    Формат : xvid
    Идентификатор кодека : xvid
    Продолжительность : 58 м.
    Битрейт : 1043 Кбит/сек
    Ширина : 704 пикселя
    Высота : 396 пикселей
    Соотношение сторон : 16:9
    Частота кадров : 25, 000 кадров/сек
    Тип развёртки : Прогрессивная
    Бит/(Пиксели*Кадры) : 0.150
    Размер потока : 435 Мбайт (88%)
    Аудио
    Идентификатор : 1
    Формат : MPEG Audio
    Версия формата : Version 1
    Профиль формата : Layer 3
    Режим : Joint stereo
    Расширение режима : MS Stereo
    Идентификатор кодека : 55
    Идентификатор кодека/Подсказка : MP3
    Продолжительность : 58 м.
    Вид битрейта : Постоянный
    Битрейт : 128 Кбит/сек
    Каналы : 2 канала
    Частота : 48, 0 КГц
    Метод сжатия : С потерями
    Размер потока : 53, 4 Мбайт (11%)
    Выравнивание : Соединение по промежуткам
    Продолжительность промежутка : 24 мс. (0, 60 видеокадр)


    Скриншоты для ознакомления




    Онлайн видео Рэй Донован



    Рэй Донован/Ray Donovan (2016) HDTVRip (сезон 4, серии 1-4 из 12) ColdFilm (обновляемая)
    загрузка...
    Рейтинг →
     (голосов: 1, оценка 3/5, голосовать можно 1 раз )

    Другие торренты по теме:

  • Рэй Донован / Ray Donovan (2014) HDTVRip (Сезон 2, серии 01-11 из 12) NewStudio (Обновляемая)
  • Рэй Донован / Ray Donovan (2014) HDTVRip (Сезон 2, серии 1-11 из 12) NovaMedia (обновляемая)
  • Рэй Донован / Ray Donovan (2014) HDTV [H.264 / 1080i-LQ] (Сезон 2, серии 1-11 из 12) NovaMedia (обновляемая)
  • Рэй Донован / Ray Donovan (2014) HDTV [H.264 / 720p-LQ] (Сезон 2, Серия 1-11 из 12) NewStudio (обновляемая)
  • Рэй Донован / Ray Donovan (2015) WEB-DLRip (сезон 3, серии 1 из 12) NewStudio (обновляемая) скачать через торрент бесплатно
  • Рэй Донован / Ray Donovan (2015) HDTVRip [H.264] (сезон 3, серии 1 из 12) NewStudio (обновляемая) скачать через торрент бесплатно
  • Рэй Донован / Ray Donovan (2015) HDTVRip (сезон 3, серии 1 из 12) NewStudio (обновляемая) скачать через торрент бесплатно
  • Рэй Донован / Ray Donovan (2015) HDTVRip [H.264 / 720p-LQ] (сезон 3, серия 1 из 12) NewStudio (обновляемая) скачать через торрент бесплатно


    • Комментарии (0):

      Информация

      Информация

        Посетители, находящиеся в группе Гости, не могут оставлять комментарии в данной новости.

        ↓ Меню




        ↓ Опрос

        Вы добавили сайт в закладки?
        Да
        Нет


        Top 10 за месяц (Фильмы)