.
Авторизация | Регистрация
Хочешь лучшие торренты? Добавь свой email!
Добавить

Торрент скачать бесплатно

» » Рэй Донован / Ray Donovan (2016) WEBRip (сезон 4, серии 1-3 из 12) Novamedia (обновляемая) торрент скачать бесплатно




    Рэй Донован / Ray Donovan (2016) WEBRip (сезон 4, серии 1-3 из 12) Novamedia (обновляемая) торрент скачать бесплатно

    Опубликовал: Админ | Дата: 14-07-2016, 04:00 | Просмотров: 322

    Производство: США/Mark Gordon Company
    Жанр: драма, криминал
    Режиссер: Майкл Аппендаль, Дэниэл Эттиэс, Джон Дал

    Актеры
    Лив Шрайбер, Паула Малкомсон, Эдди Марсан, Дэш Майок, Джон Войт, Стивен Бауэр, Кэтрин Менниг, Пуч Холл, Кэррис Дорси, Девон Бэгби и др.

    Описание

    Сериал расскажет о Рэе Доноване, профессиональном разруливателе проблем, которого вызывают, когда у кого-то из богатых и знаменитых жителей Лос-Анджелеса возникают сложности.

    Возраст: 18+ (зрителям, достигшим 18 лет)
    Продолжительность: ~00: 54: 00 серия
    Качество видео: WEBRip
    Перевод: Многоголосый закадровый, профессиональный -Novamedia по заказу Amedia
    Видео: XviD, 720x400 (16: 9), ~1500 Kb/s
    Аудио Rus: MPEG Layer 3, 48, 0 kHz, 2 ch, 128 kb/s — многоголосый закадровый
    Аудио Eng: MPEG Layer 3, 48, 0 kHz, 2 ch, 128 kb/s — оригинал
    Код:

    Общее
    Полное имя : D:Рэй Донован (сезон любимого сериала 4) Ray Donovan (2016) WEBRip - AmediaRay.Donovan.[S04E01].XviD.Amedia.[qqss44].avi
    Формат : AVI
    Формат/Информация : Audio Video Interleave
    Размер файла : 700 Мбайт
    Продолжительность : 56 м.
    Общий поток : 1737 Кбит/сек
    Программа кодирования : VirtualDubMod 1.5.10.3 |www.virtualdub-fr.org|| (build 2550/release)
    Библиотека кодирования : VirtualDubMod build 2550/release
    Видео
    Идентификатор : 0
    Формат : MPEG-4 Visual
    Профиль формата : Advanced Simple@L5
    Параметр BVOP формата : 2
    Параметр QPel формата : Нет
    Параметр GMC формата : Без точки перехода
    Параметр матрицы формата : Default (MPEG)
    Идентификатор кодека : XVID
    Идентификатор кодека/Подсказка : XviD
    Продолжительность : 56 м.
    Битрейт : 1467 Кбит/сек
    Ширина : 720 пикселей
    Высота : 400 пикселей
    Соотношение сторон : 16:9
    Частота кадров : 25, 000 кадров/сек
    Цветовое пространство : YUV
    Субдискретизация насыщенности : 4:2:0
    Битовая глубина : 8 бит
    Тип развёртки : Прогрессивная
    Метод сжатия : С потерями
    Бит/(Пиксели*Кадры) : 0.204
    Размер потока : 591 Мбайт (84%)
    Библиотека кодирования : XviD 73
    Аудио #1
    Идентификатор : 1
    Формат : MPEG Audio
    Версия формата : Version 1
    Профиль формата : Layer 3
    Режим : Joint stereo
    Расширение режима : MS Stereo
    Идентификатор кодека : 55
    Идентификатор кодека/Подсказка : MP3
    Продолжительность : 56 м.
    Вид битрейта : Постоянный
    Битрейт : 128 Кбит/сек
    Каналы : 2 канала
    Частота : 48, 0 КГц
    Метод сжатия : С потерями
    Размер потока : 51, 5 Мбайт (7%)
    Выравнивание : Соединение по промежуткам
    Продолжительность промежутка : 40 мс. (1, 00 видеокадр)
    Время предзагрузки промежутка : 504 мс.
    Аудио #2
    Идентификатор : 2
    Формат : MPEG Audio
    Версия формата : Version 1
    Профиль формата : Layer 3
    Режим : Joint stereo
    Расширение режима : MS Stereo
    Идентификатор кодека : 55
    Идентификатор кодека/Подсказка : MP3
    Продолжительность : 56 м.
    Вид битрейта : Постоянный
    Битрейт : 128 Кбит/сек
    Каналы : 2 канала
    Частота : 48, 0 КГц
    Метод сжатия : С потерями
    Размер потока : 51, 5 Мбайт (7%)
    Выравнивание : Соединение по промежуткам
    Продолжительность промежутка : 40 мс. (1, 00 видеокадр)
    Время предзагрузки промежутка : 504 мс.


    Скриншоты для ознакомления




    Онлайн видео Рэй Донован



    Рэй Донован/Ray Donovan (2016) WEBRip (сезон 4, серии 1-3 из 12) Novamedia (обновляемая)
    загрузка...
    Рейтинг →
     (голосов: 1, оценка 3/5, голосовать можно 1 раз )

    Другие торренты по теме:

  • Рэй Донован / Ray Donovan (2014) HDTVRip (Сезон 2, серии 01-11 из 12) NewStudio (Обновляемая)
  • Рэй Донован / Ray Donovan (2014) HDTVRip (Сезон 2, серии 1-11 из 12) NovaMedia (обновляемая)
  • Рэй Донован / Ray Donovan (2014) HDTV [H.264 / 1080i-LQ] (Сезон 2, серии 1-11 из 12) NovaMedia (обновляемая)
  • Рэй Донован / Ray Donovan (2014) HDTV [H.264 / 720p-LQ] (Сезон 2, Серия 1-11 из 12) NewStudio (обновляемая)
  • Рэй Донован / Ray Donovan (2015) WEB-DLRip (сезон 3, серии 1 из 12) NewStudio (обновляемая) скачать через торрент бесплатно
  • Рэй Донован / Ray Donovan (2015) HDTVRip [H.264] (сезон 3, серии 1 из 12) NewStudio (обновляемая) скачать через торрент бесплатно
  • Рэй Донован / Ray Donovan (2015) HDTVRip (сезон 3, серии 1 из 12) NewStudio (обновляемая) скачать через торрент бесплатно
  • Рэй Донован / Ray Donovan (2015) HDTVRip [H.264 / 720p-LQ] (сезон 3, серия 1 из 12) NewStudio (обновляемая) скачать через торрент бесплатно


    • Комментарии (0):

      Информация

      Информация

        Посетители, находящиеся в группе Гости, не могут оставлять комментарии в данной новости.

        ↓ Меню




        ↓ Опрос

        Вы добавили сайт в закладки?
        Да
        Нет


        Top 10 за месяц (Фильмы)