.
Авторизация | Регистрация
Хочешь лучшие торренты? Добавь свой email!
Добавить

Торрент скачать бесплатно

» » Нереально / Нереальное шоу / UnReal (2016) WEB-DLRip [H.264 / 1080p-LQ] (сезон 2, серия 01-06 из 10) BaibaKo (обновляемая) торрент скачать бесплатно




    Нереально / Нереальное шоу / UnReal (2016) WEB-DLRip [H.264 / 1080p-LQ] (сезон 2, серия 01-06 из 10) BaibaKo (обновляемая) торрент скачать бесплатно

    Опубликовал: Админ | Дата: 14-07-2016, 04:00 | Просмотров: 32

    Производство: США
    Жанр: драма
    Режиссер: Ута Бризвитц, Питер О’Фаллон, Лев Л. Спиро

    Актеры
    Шири Эпплби, Констанс Зиммер, Джоанна Э. Брэдди, Женевьев Бюкнер, Бреннан Эллиотт, Бонита Фридериси, Натали Келли, Джош Келли, Фредди Строма, Джеффри Бауэр-Чепман и др.

    Описание

    Желаете выяснить, что собственно скрывается за кулисами телекухни? Сериал Нереальное шоу демонстрирует изнанку прекрасной жизни героев амурных реалити-шоу. У любого из них за пределами съемочной площадки есть личная жизнь, колоссально отличная от глянцевого экранного вида. Они все издавна сообразили: продается все, даже стиль. Любой из них способен на почти все для того, чтоб заполучить собственную минутку популярности в эфире.

    Продолжительность: ~00: 43: 00 серия
    Качество видео: WEB-DLRip
    Перевод: Многоголосый закадровый, профессиональный -BaibaKo
    Реклама: присутствуют аудио, видео, текстовые вставки рекламы.
    Видео: AVC/H.264, 1910x1070 (16: 9), ~5196 Kbps
    Аудио Rus: AC-3, 48.0 KHz, 2 ch, 384 Kbps, CBR - многоголосый закадровый
    Аудио Eng: AC-3, 48.0 KHz, 2 ch, 384 Kbps, CBR - оригинал
    Код:

    UnREAL.s02e01.HD1080p.WEB-DL.Rus.Eng.BaibaKo.mkv
    Format : Matroska
    Format version : Version 4/Version 2
    File size : 1.78 GiB
    Duration : 42 min
    Overall bit rate : 5 974 kb/s
    Encoded date : UTC 2016-06-08 22:21:06
    Writing application : mkvmerge v8.9.0 (\'Father Daughter\') 64bit
    Writing library : libebml v1.3.3 + libmatroska v1.4.4
    Video
    ID : 1
    Format : AVC
    Format/Info : Advanced Video Codec
    Format profile : High@L4
    Format settings, CABAC : Yes
    Format settings, ReFrames : 4 frames
    Codec ID : V_MPEG4/ISO/AVC
    Duration : 42 min
    Bit rate : 5 196 kb/s
    Width : 1 910 pixels
    Height : 1 070 pixels
    Display aspect ratio : 16:9
    Frame rate mode : Constant
    Frame rate : 23.976 (24000/1001) FPS
    Color space : YUV
    Chroma subsampling : 4:2:0
    Bit depth : 8 bits
    Scan type : Progressive
    Bits/(Pixel*Frame) : 0.106
    Stream size : 1.55 GiB (87%)
    Writing library : x264 core 142 r2479 dd79a61
    Encoding settings : cabac=1/ref=4/deblock=1:0:0/analyse=0x3:0x113/me=hex/subme=7/psy=1/psy_rd=1.00:0.00/mixed_ref=1/me_range=16/chroma_me=1/trellis=1/8x8dct=1/cqm=0/deadzone=21, 11/fast_pskip=1/chroma_qp_offset=-2/threads=12/lookahead_threads=2/sliced_threads=0/nr=0/decimate=1/interlaced=0/bluray_compat=0/constrained_intra=0/bframes=3/b_pyramid=2/b_adapt=1/b_bias=0/direct=1/weightb=1/open_gop=0/weightp=2/keyint=240/keyint_min=24/scenecut=40/intra_refresh=0/rc_lookahead=40/rc=2pass/mbtree=1/bitrate=5196/ratetol=1.0/qcomp=0.60/qpmin=0/qpmax=69/qpstep=4/cplxblur=20.0/qblur=0.5/vbv_maxrate=25000/vbv_bufsize=31250/nal_hrd=none/filler=0/ip_ratio=1.40/aq=1:1.00
    Default : No
    Forced : No
    Color range : Limited
    Color primaries : BT.709
    Transfer characteristics : BT.709
    Matrix coefficients : BT.709
    Audio #1
    ID : 2
    Format : AC-3
    Format/Info : Audio Coding 3
    Mode extension : CM (complete main)
    Format settings, Endianness : Big
    Codec ID : A_AC3
    Duration : 42 min
    Bit rate mode : Constant
    Bit rate : 384 kb/s
    Channel(s) : 2 channels
    Channel positions : Front: L R
    Sampling rate : 48.0 kHz
    Frame rate : 31.250 FPS (1536 spf)
    Compression mode : Lossy
    Stream size : 117 MiB (6%)
    Language : Russian
    Default : Yes
    Forced : No
    Audio #2
    ID : 3
    Format : AC-3
    Format/Info : Audio Coding 3
    Mode extension : CM (complete main)
    Format settings, Endianness : Big
    Codec ID : A_AC3
    Duration : 42 min
    Bit rate mode : Constant
    Bit rate : 384 kb/s
    Channel(s) : 2 channels
    Channel positions : Front: L R
    Sampling rate : 48.0 kHz
    Frame rate : 31.250 FPS (1536 spf)
    Compression mode : Lossy
    Stream size : 117 MiB (6%)
    Language : English
    Default : No
    Forced : No


    Скриншоты для ознакомления




    Онлайн видео Нереально



    Нереально/Нереальное шоу/UnReal (2016) WEB-DLRip [H.264/1080p-LQ] (сезон 2, серия 01-06 из 10) BaibaKo (обновляемая)
    загрузка...
    Рейтинг →
     (голосов: 1, оценка 5/5, голосовать можно 1 раз )

    Другие торренты по теме:



      Комментарии (0):

      Информация

      Информация

        Посетители, находящиеся в группе Гости, не могут оставлять комментарии в данной новости.

        ↓ Меню




        ↓ Опрос

        Вы добавили сайт в закладки?
        Да
        Нет


        Top 10 за месяц (Фильмы)