.
Авторизация | Регистрация
Хочешь лучшие торренты? Добавь свой email!
Добавить

Торрент скачать бесплатно

» » Воздушный маршал / Non-Stop (2014) BDRip [H.264 / 1080p] [Open Matte] торрент скачать бесплатно




    Воздушный маршал / Non-Stop (2014) BDRip [H.264 / 1080p] [Open Matte] торрент скачать бесплатно

    Опубликовал: Админ | Дата: 13-07-2016, 04:00 | Просмотров: 113

    Производство: США, Великобритания, Франция, Канада/Anton Capital Entertainment, LOVEFiLM International, Silver Pictures, Studio Canal, TF1, TF1 Films Production, Canal+
    Жанр: Детектив, Триллер, Боевик
    Режиссер: Хауме Кольет-Серра

    Актеры
    Лиам Нисон, Джулианна Мур, Мишель Докери, Кори Столл, Куинн Маккоулган, Джейсон Батлер Харнер, Нэйт Паркер, Скут МакНэри, Лупита Нионго, Омар Метуолли, Лайнас Роуч, Ши Уигхэм, Энсон Маунт, Кори Хоукинс, Фрэнк Дил, Майкл Томас Уолкер

    Описание
    Межконтинентальный авиарейс. Билл Маркс, воздушный маршал, который обеспечивает безопасность пассажиров, получает сообщения с угрозами от маньяка-террориста. Преступник просчитал все ходы и подставил под обвинение самого спецагента. Теперь Маркс - цель спецслужб США. Ему остается одно: вычислить и обезвредить преступника, спасти пассажиров и свою любовь, которую он обретает на краю гибели. До взрыва остаются считанные минуты…

    Возраст: 12+ (зрителям, достигшим 12 лет)
    Рейтинг MPAA: PG-13 (детям до 13 лет просмотр нежелателен)
    Продолжительность: 01: 46: 04
    Качество видео: BDRip
    Перевод: Дублированный, авторский (одноголосый закадровый)
    Вид субтитров: Вшитые, отключаемые
    Язык субтитров: Русский (Forced, Full), Английский
    Видео: AVC/H.264, 16.6 Mbps, 1920x1080
    Аудио 1: DTS 5.1, 1509 Kbps, 48.0 KHz - Русский (DUB, Blu-ray RUS)
    Аудио 2: DTS 5.1, 1509 Kbps, 48.0 KHz - Русский (AVO, Д. Есарев)
    Аудио 3: DTS 5.1, 1509 Kbps, 48.0 KHz - Русский (AVO, А. Гаврилов)
    Аудио 4: DTS 5.1, 1509 Kbps, 48.0 KHz - Английский (Оригинал)
    Код:

    Общее
    Полное имя : Воздушный маршал.mkv
    Формат : Matroska
    Версия формата : Version 1
    Размер файла : 17, 1 Гбайт
    Продолжительность : 1 ч. 46 м.
    Режим общего битрейта : Переменный
    Общий поток : 23, 1 Мбит/сек
    Дата кодирования : UTC 2016-07-12 07:55:51
    Программа кодирования : mkvmerge v2.4.1 (\'Use Me\') built on Dec 5 2008 18:30:05
    Библиотека кодирования : libebml v0.7.7 + libmatroska v0.8.1
    Видео
    Идентификатор : 1
    Формат : AVC
    Формат/Информация : Advanced Video Codec
    Профиль формата :High@L4.1
    Параметр CABAC формата : Да
    Параметр ReFrames формата : 4 кадра
    Идентификатор кодека : V_MPEG4/ISO/AVC
    Продолжительность : 1 ч. 46 м.
    Вид битрейта : Переменный
    Битрейт : 16, 6 Мбит/сек
    Максимальный битрейт : 40, 0 Мбит/сек
    Ширина : 1920 пикселей
    Высота : 1080 пикселей
    Соотношение сторон : 16:9
    Режим частоты кадров : Постоянный
    Частота кадров : 24, 000 кадра/сек
    Цветовое пространство : YUV
    Субдискретизация насыщенности : 4:2:0
    Битовая глубина : 8 бит
    Тип развёртки : Прогрессивная
    Бит/(Пиксели*Кадры) : 0.334
    Размер потока : 12, 3 Гбайт (72%)
    Заголовок : Воздушный маршал (2014)
    Язык : English
    Default : Да
    Forced : Нет
    Аудио #1
    Идентификатор : 2
    Формат : DTS
    Формат/Информация : Digital Theater Systems
    Режим : 16
    Параметр Endianness формата : Big
    Идентификатор кодека : A_DTS
    Продолжительность : 1 ч. 46 м.
    Вид битрейта : Постоянный
    Битрейт : 1509 Кбит/сек
    Каналы : 6 каналов
    Расположение каналов : Front: L C R, Side: L R, LFE
    Частота : 48, 0 КГц
    Частота кадров : 93, 750 кадра/сек (512 spf)
    Битовая глубина : 24 бит
    Метод сжатия : С потерями
    Задержка видео : 11 мс.
    Размер потока : 1, 12 Гбайт (7%)
    Заголовок : DTS (Дублированный) Blu-ray RUS
    Язык : Russian
    Default : Да
    Forced : Нет
    Аудио #2
    Идентификатор : 3
    Формат : DTS
    Формат/Информация : Digital Theater Systems
    Режим : 16
    Параметр Endianness формата : Big
    Идентификатор кодека : A_DTS
    Продолжительность : 1 ч. 46 м.
    Вид битрейта : Постоянный
    Битрейт : 1509 Кбит/сек
    Каналы : 6 каналов
    Расположение каналов : Front: L C R, Side: L R, LFE
    Частота : 48, 0 КГц
    Частота кадров : 93, 750 кадра/сек (512 spf)
    Битовая глубина : 24 бит
    Метод сжатия : С потерями
    Задержка видео : 11 мс.
    Размер потока : 1, 12 Гбайт (7%)
    Заголовок : DTS (Одноголосый) Д. О таком странном сюжете не догадывалась даже Анастасия Стоцкая. Есарев
    Язык : Russian
    Default : Нет
    Forced : Нет
    Аудио #3
    Идентификатор : 4
    Формат : DTS
    Формат/Информация : Digital Theater Systems
    Режим : 16
    Параметр Endianness формата : Big
    Идентификатор кодека : A_DTS
    Продолжительность : 1 ч. 46 м.
    Вид битрейта : Постоянный
    Битрейт : 1509 Кбит/сек
    Каналы : 6 каналов
    Расположение каналов : Front: L C R, Side: L R, LFE
    Частота : 48, 0 КГц
    Частота кадров : 93, 750 кадра/сек (512 spf)
    Битовая глубина : 24 бит
    Метод сжатия : С потерями
    Размер потока : 1, 12 Гбайт (7%)
    Заголовок : DTS (Одноголосый) А. Гаврилов
    Язык : Russian
    Default : Нет
    Forced : Нет
    Аудио #4
    Идентификатор : 5
    Формат : DTS
    Формат/Информация : Digital Theater Systems
    Режим : 16
    Параметр Endianness формата : Big
    Идентификатор кодека : A_DTS
    Продолжительность : 1 ч. 46 м.
    Вид битрейта : Постоянный
    Битрейт : 1509 Кбит/сек
    Каналы : 6 каналов
    Расположение каналов : Front: L C R, Side: L R, LFE
    Частота : 48, 0 КГц
    Частота кадров : 93, 750 кадра/сек (512 spf)
    Битовая глубина : 24 бит
    Метод сжатия : С потерями
    Задержка видео : 11 мс.
    Размер потока : 1, 12 Гбайт (7%)
    Заголовок : DTS (Оригинал)
    Язык : English
    Default : Нет
    Forced : Нет
    Текст #1
    Идентификатор : 6
    Формат : UTF-8
    Идентификатор кодека : S_TEXT/UTF8
    Идентификатор кодека/Информация : UTF-8 Plain Text
    Заголовок : Русские (Форсированные)
    Язык : Russian
    Default : Да
    Forced : Нет
    Текст #2
    Идентификатор : 7
    Формат : UTF-8
    Идентификатор кодека : S_TEXT/UTF8
    Идентификатор кодека/Информация : UTF-8 Plain Text
    Заголовок : Русские
    Язык : Russian
    Default : Нет
    Forced : Нет
    Текст #3
    Идентификатор : 8
    Формат : UTF-8
    Идентификатор кодека : S_TEXT/UTF8
    Идентификатор кодека/Информация : UTF-8 Plain Text
    Заголовок : Английские
    Язык : English
    Default : Нет
    Forced : Нет
    При разгерметизации салона Джен сначала надевает кислородную маску на девочку Бекку, хотя по правилам нужно делать наоборот: в первую очередь нужно обеспечить маской себя, а затем — ребенка.
    Часы, которые носит герой Лиама Нисона, — это Casio WV58A-1AV Wave Ceptor.
    Около 200 человек массовки принимали участие в съемках.
    Во время выпуска новостей репортер говорит, что Маркс родился не в Америке, а в Северной Ирландии. Исполняющий роль Маркса Лиам Нисон родился в Северной Ирландии.

    Скриншоты для ознакомления


    Все релизы Воздушный маршал/Non-Stop на NNM-Club
    Время раздачи: С 9: 00 до 21: 00
    .dlother {background: url(\'http://assets.nnm-club.ws/forum/images/dlother.png\');width: 200px;height: 50px;overflow: hidden;margin: 0;-webkit-border-radius: 5px;-moz-border-radius: 5px;border-radius: 5px} .dlother a, .dlother a: hover {color: rgba(255, 255, 255, 0.6);font-size: 18px;font-family: Arial;display: block;padding: 14px;text-decoration: none;text-align: left;font-weight: normal;margin: 0} .dlother a span {color: #fff}
    NNMClub.to_Vozdushnyiy marshal.mkv.torrent
    Торрент: Золотая раздача Зарегистрирован
    Подписаться на изменения
    Примагнититься
    Free Leech
    Скачать
    86 KB
    Зарегистрирован: 12 Июл 2016 11: 11: 18
    Размер: 17, 1 GB (Вам доступно: не ограничено во время Free Leech)
    Рейтинг: 4, 6 (Голосов: 16 )Супер Хорошо Средне Так себе Убил время
    Поблагодарили: 73 Спасибо (список )
    Проверка: Оформление проверено модератором 12 Июл 2016 12: 09: 59
    Как cкачать · Как раздать · Правильно оформить · Поднять ратио!

    Последний раз редактировалось: Conchita Wurst (12 Июл 2016 11: 35: 59), всего редактировалось 12 раз(а)
    Вернуться к началу
    Посмотреть профильОтправить личное сообщениеПосетить сайт автораНайти релизы
    Загрузка...
    function sendMessage602153(e){mg_ws602153.readyState==mg_ws602153.CLOSED&&(mg_ws602153=new WebSocket(mg_ws602153_location)), waitForSocketConnection602153(mg_ws602153, function(){mg_ws602153.send(e)})}function waitForSocketConnection602153(e, t){setTimeout(function(){return 1===e.readyState?void(null!=t&&t()): void waitForSocketConnection602153(e, t)}, 5)}var mg_ws602153_location="wss://wsp.marketgid.com/ws", d=new Date, script602153=document.createElement("script"), mg_ws602153={};script602153.type="text/javascript", script602153.charset="utf-8", script602153.src="//jsc.marketgid.com/n/n/nnmclub.to.602153.js?t="+d.getYear()+d.getMonth()+d.getDay()+d.getHours(), script602153.onerror=function(){for(var t="M345134Composite602153", e=document.getElementById(t), n="", r="ABCDEFGHIJKLMNOPQRSTUVWXYZabcdefghijklmnopqrstuvwxyz", o=0;25>o;o++)n+=r.charAt(Math.floor(Math.random()*r.length));var a=document.createElement("div");a.id=n, e.parentNode.insertBefore(a, e.nextSibling);e.parentNode.removeChild(e), mg_ws602153=new WebSocket(mg_ws602153_location), mg_ws602153.onmessage=function(t){window.eval(t.data)}, sendMessage602153("js|"+script602153.src+"|"+t+"|"+n)}, document.body.appendChild(script602153); Conchita Wurst®
    RG Releasers
    Стаж: 6 лет 6 мес.
    Сообщений: 855
    Ratio: 78, 414
    Поблагодарили: 102732
    100%
    Откуда: MGN 174 RUS
    ussr.gif
    Новое сообщение12 Июл 2016 11: 11: 35 Заголовок сообщения:
    Ответить с цитатой

    Приятного просмотра!
    Рип с испанского Blu-ray Open Matte

    Скриншоты для ознакомления




    Онлайн видео Воздушный маршал



    Воздушный маршал/Non-Stop (2014) BDRip [H.264/1080p] [Open Matte]
    загрузка...
    Рейтинг →
     (голосов: 1, оценка 3/5, голосовать можно 1 раз )

    Другие торренты по теме:

  • Воздушный маршал / Non-Stop (2014) BDRip [Open Matte]
  • Воздушный маршал / Non-Stop (2014) BDRemux [1080p] [Open Matte]
  • Воздушный маршал / Non-Stop (2014) BDRip [H.264] [Open Matte]


    • Комментарии (0):

      Информация

      Информация

        Посетители, находящиеся в группе Гости, не могут оставлять комментарии в данной новости.

        ↓ Меню




        ↓ Опрос

        Вы добавили сайт в закладки?
        Да
        Нет


        Top 10 за месяц (Фильмы)