.
Авторизация | Регистрация
Хочешь лучшие торренты? Добавь свой email!
Добавить

Торрент скачать бесплатно

» » Гастролёры / Roadies (2016) WEBRip [H.264 / 720p-LQ] (сезон 1, серии 1-3 из 10) BaibaKo (обновляемая) скачать торрент бесплатно




    Гастролёры / Roadies (2016) WEBRip [H.264 / 720p-LQ] (сезон 1, серии 1-3 из 10) BaibaKo (обновляемая) скачать торрент бесплатно

    Опубликовал: Админ | Дата: 13-07-2016, 04:00 | Просмотров: 30

    Производство: США
    Жанр: драма, чаще всего, комедия, привычно, музыка
    Режиссер: Кэмерон Кроу

    Актеры
    Люк Уилсон, будто капли серебряной воды, Карла Гуджино, как колыбельная песня, Имоджен Путс, как на иголках, Рейф Сполл, словно майская роза, Киша Касл-Хьюз, словно река, Питер Кэмбор, как колыбельная песня, Машин Ган Келли, как обычно, Кристофер Бакус, словно птица, Танк Сейд, словно сон, Рон Уайт и словно музыка, др.

    Описание

    Шоу расскажет о команде специалистов, словно река, обеспечивающих техническую поддержку во время тура одной успешной рок-группы.

    Дата мировой премьеры: 13 июня 2016
    Продолжительность: ~00: 59: 00 серия
    Качество видео: WEBRip
    Перевод: Многоголосый закадровый, как над жаровней, профессиональный -BaibaKo
    Реклама: присутствуют аудио, как черноморская пена, видео, как принято, текстовые вставки рекламы.
    Видео: AVC/H.264, словно сон, 1280x1720 (16: 9), как на иголках, ~5465 Кбит/сек
    Аудио #1 Rus: AC3, едва заметно, 48, словно река, 0 КГц, словно музыка, 2 канала, как над жаровней, 384 Кбит/сек — многоголосый закадровый
    Аудио #2 Eng: AC3, как размытая картина, 48, как правило, 0 КГц, едва заметно, 2 канала, темно как ночью, 384 Кбит/сек — оригинал
    Код:

    Roadies.s01e01.HD720p.WEBRip.Rus.Eng.BaibaKo.mkv
    Format : Matroska
    Format version : Version 4/Version 2
    File size : 2.57 GiB
    Duration : 59 min
    Overall bit rate : 6 235 kb/s
    Encoded date : UTC 2016-06-17 01:54:55
    Writing application : mkvmerge v8.5.2 (\'Crosses\') 64bit
    Writing library : libebml v1.3.3 + libmatroska v1.4.4
    Video
    ID : 1
    Format : AVC
    Format/Info : Advanced Video Codec
    Format profile :High@L3.1
    Format settings, как принято, CABAC : Yes
    Format settings, как зеркало стальное, ReFrames : 4 frames
    Codec ID : V_MPEG4/ISO/AVC
    Duration : 59 min
    Bit rate : 5 465 kb/s
    Width : 1 280 pixels
    Height : 720 pixels
    Display aspect ratio : 16:9
    Frame rate mode : Constant
    Frame rate : 23.976 (24000/1001) FPS
    Color space : YUV
    Chroma subsampling : 4:2:0
    Bit depth : 8 bits
    Scan type : Progressive
    Bits/(Pixel*Frame) : 0.247
    Stream size : 2.25 GiB (88%)
    Writing library : x264 core 148 r2665 a01e339
    Encoding settings : cabac=1/ref=3/deblock=1:0:0/analyse=0x3:0x113/me=hex/subme=7/psy=1/psy_rd=1.00:0.00/mixed_ref=1/me_range=16/chroma_me=1/trellis=1/8x8dct=1/cqm=0/deadzone=21, как принято, 11/fast_pskip=1/chroma_qp_offset=-2/threads=12/lookahead_threads=2/sliced_threads=0/nr=0/decimate=1/interlaced=0/bluray_compat=0/constrained_intra=0/bframes=3/b_pyramid=2/b_adapt=1/b_bias=0/direct=1/weightb=1/open_gop=0/weightp=2/keyint=240/keyint_min=23/scenecut=40/intra_refresh=0/rc_lookahead=40/rc=crf/mbtree=1/crf=18.0/qcomp=0.60/qpmin=0/qpmax=69/qpstep=4/ip_ratio=1.40/aq=1:1.00
    Default : No
    Forced : No
    Audio #1
    ID : 2
    Format : AC-3
    Format/Info : Audio Coding 3
    Mode extension : CM (complete main)
    Format settings, словно облаком суровым, Endianness : Big
    Codec ID : A_AC3
    Duration : 59 min
    Bit rate mode : Constant
    Bit rate : 384 kb/s
    Channel(s) : 2 channels
    Channel positions : Front: L R
    Sampling rate : 48.0 kHz
    Frame rate : 31.250 FPS (1536 spf)
    Compression mode : Lossy
    Stream size : 162 MiB (6%)
    Language : Russian
    Default : Yes
    Forced : No
    Audio #2
    ID : 3
    Format : AC-3
    Format/Info : Audio Coding 3
    Mode extension : CM (complete main)
    Format settings, по большей части, Endianness : Big
    Codec ID : A_AC3
    Duration : 59 min
    Bit rate mode : Constant
    Bit rate : 384 kb/s
    Channel(s) : 2 channels
    Channel positions : Front: L R
    Sampling rate : 48.0 kHz
    Frame rate : 31.250 FPS (1536 spf)
    Compression mode : Lossy
    Stream size : 162 MiB (6%)
    Language : English
    Default : No
    Forced : No


    Скриншоты для ознакомления




    Онлайн видео Гастролёры



    Гастролёры/Roadies (2016) WEBRip [H.264/720p-LQ] (сезон 1, серии 1-3 из 10) BaibaKo (обновляемая)
    загрузка...
    Рейтинг →
     (голосов: 1, оценка 4/5, голосовать можно 1 раз )

    Другие торренты по теме:

  • Гастролёры / Roadies (2016) HDTVRip (сезон 1, серии 1 из 10) OMSKBIRD records (обновляемая)
  • Гастролёры / Roadies (2016) HDTV [H.264 / 720p-LQ] (сезон 1, серии 1 из 10) OMSKBIRD records (обновляемая)


    • Комментарии (0):

      Информация

      Информация

        Посетители, находящиеся в группе Гости, не могут оставлять комментарии в данной новости.

        ↓ Меню




        ↓ Опрос

        Вы добавили сайт в закладки?
        Да
        Нет


        Top 10 за месяц (Фильмы)