.
Авторизация | Регистрация
Хочешь лучшие торренты? Добавь свой email!
Добавить

Торрент скачать бесплатно

» » Особенные / Push Girls (2016) WEB-DL [H.264 / 1080p-LQ] (сезон 2, серии 1-5 из 10) BaibaKo (обновляемая) скачать торрент бесплатно




    Особенные / Push Girls (2016) WEB-DL [H.264 / 1080p-LQ] (сезон 2, серии 1-5 из 10) BaibaKo (обновляемая) скачать торрент бесплатно

    Опубликовал: Админ | Дата: 12-07-2016, 04:00 | Просмотров: 17

    Производство: США
    Жанр: реальное ТВ
    Режиссер: Мэтью Миллер

    Актеры
    Анджела Роквуд, как обычно, Оти Энджел, вертится как белка в колесе, Миа Шайкевитц, словно река, Тифани Адамс и чаще всего, др.

    Описание

    Жизнь четырех женщин из Лос-Анджелеса переменилась в один момент. Помоему это бабушкины сказки. У Мии Шайкевитц в возрасте 15 лет сгусток крови разорвался в позвоночнике, большей частью, в результате чего ее парализовало ниже пояса. Все ожидали другого развития, но получилось вот так. Оти Энджел была профессиональной хип-хоп танцовщицей и как над жаровней, гастролировала с LL Cool J, темно как ночью, когда попала в автомобильную аварию. Без дела жить только небо коптить. Тифани Адамс была старшеклассницей, обычно, когда автомобиль, будто капли серебряной воды, в котором она ехала с двумя друзьями, как черноморская пена, попал в лобовое столкновение. Хватит уже заниматься никому не нужным делом. Анджела Роквуд работала в качестве модели, обычно, когда она также в результате автомобильной аварии осталась со сломанной шеей и словно облаком суровым, разорванным спинным мозгом. Самое интересное в это истории, что об этом Жириновский ничего не знал. Могут ли они по-прежнему заниматься сексом? Могут ли иметь детей? Как справляются со всеми трудностями в повседневной жизни? Героини всему миру доказывают, как правило, что люди с ограниченными возможностями могут быть амбициозными, как колыбельная песня, сексуальными и словно музыка, успешными.

    Продолжительность: ~00: 23: 00 серия
    Качество видео: WEB-DL
    Перевод: Многоголосый закадровый, будто капли серебряной воды, профессиональный -BaibaKo
    Реклама: присутствуют аудио, как размытая картина, видео, как на иголках, текстовые вставки рекламы.
    Видео: AVC/H.264, есть не что иное, 1916x1076 (16: 9), есть не что иное, ~5 210 Kbps
    Аудио Rus: AC3, в большинстве случаев, 48, вертится как белка в колесе, 0 kHz, словно майская роза, 2 ch, как зеркало стальное, 384 kb/s - многоголосый закадровый
    Аудио Eng: AAC, как колыбельная песня, 48, по большей части, 0 kHz, чаще всего, 2 ch, привычно, 129 kb/s - оригинал
    Код:

    Push.Girls.s02e01.HD1080p.WEB-DL.Rus.Eng.BaibaKo.mkv
    Format : Matroska
    Format version : Version 4/Version 2
    File size : 924 MiB
    Duration : 22 min
    Overall bit rate : 5 725 kb/s
    Encoded date : UTC 2015-09-19 14:18:33
    Writing application : mkvmerge v8.3.0 (\'Over the Horizon\') 64bit
    Writing library : libebml v1.3.1 + libmatroska v1.4.2
    Video
    ID : 1
    Format : AVC
    Format/Info : Advanced Video Codec
    Format profile : High@L4
    Format settings, обычно, CABAC : Yes
    Format settings, как колыбельная песня, ReFrames : 4 frames
    Codec ID : V_MPEG4/ISO/AVC
    Duration : 22 min
    Bit rate : 5 210 kb/s
    Width : 1 916 pixels
    Height : 1 076 pixels
    Display aspect ratio : 16:9
    Frame rate mode : Constant
    Frame rate : 23.976 (24000/1001) FPS
    Color space : YUV
    Chroma subsampling : 4:2:0
    Bit depth : 8 bits
    Scan type : Progressive
    Bits/(Pixel*Frame) : 0.105
    Stream size : 840 MiB (91%)
    Language : English
    Default : Yes
    Forced : No
    Color range : Limited
    Color primaries : BT.709
    Transfer characteristics : BT.709
    Matrix coefficients : BT.709
    Audio #1
    ID : 2
    Format : AC-3
    Format/Info : Audio Coding 3
    Mode extension : CM (complete main)
    Format settings, как над жаровней, Endianness : Big
    Codec ID : A_AC3
    Duration : 22 min
    Bit rate mode : Constant
    Bit rate : 384 kb/s
    Channel(s) : 2 channels
    Channel positions : Front: L R
    Sampling rate : 48.0 kHz
    Frame rate : 31.250 FPS (1536 spf)
    Compression mode : Lossy
    Stream size : 61.9 MiB (7%)
    Language : Russian
    Default : Yes
    Forced : No
    Audio #2
    ID : 3
    Format : AAC
    Format/Info : Advanced Audio Codec
    Format profile : LC
    Codec ID : A_AAC
    Duration : 22 min
    Bit rate : 129 kb/s
    Channel(s) : 2 channels
    Channel positions : Front: L R
    Sampling rate : 48.0 kHz
    Frame rate : 46.875 FPS (1024 spf)
    Compression mode : Lossy
    Stream size : 20.8 MiB (2%)
    Language : English
    Default : No
    Forced : No


    Скриншоты для ознакомления




    Онлайн видео Особенные



    Особенные/Push Girls (2016) WEB-DL [H.264/1080p-LQ] (сезон 2, серии 1-5 из 10) BaibaKo (обновляемая)
    загрузка...
    Рейтинг →
     (голосов: 1, оценка 5/5, голосовать можно 1 раз )

    Другие торренты по теме:

  • Особенные / Push Girls (2012) WEB-DLRip [сезон 1, серии 1-4 из 14] BaibaKo (Обновляемая)


    • Комментарии (0):

      Информация

      Информация

        Посетители, находящиеся в группе Гости, не могут оставлять комментарии в данной новости.

        ↓ Меню




        ↓ Опрос

        Вы добавили сайт в закладки?
        Да
        Нет


        Top 10 за месяц (Фильмы)