.
Авторизация | Регистрация
Хочешь лучшие торренты? Добавь свой email!
Добавить

Торрент скачать бесплатно

» » Игра престолов / Game of Thrones (2011-2015) BDRip [H.264 / 1080p-LQ] (сезон 1-5, серии 1-50 из 50) (LostFilm) скачать торрент бесплатно




    Игра престолов / Game of Thrones (2011-2015) BDRip [H.264 / 1080p-LQ] (сезон 1-5, серии 1-50 из 50) (LostFilm) скачать торрент бесплатно

    Опубликовал: Админ | Дата: 12-07-2016, 04:00 | Просмотров: 19

    Производство: США, едва заметно, Великобритания
    Жанр: фэнтези, привычно, драма, как на иголках, приключения
    Режиссер: Алан Тейлор, как обычно, Даниэль Минахан, как колыбельная песня, Дэвид Наттер и будто капли серебряной воды, др.

    Актеры
    Питер Динклэйдж, темно как ночью, Лина Хиди, чаще всего, Эмилия Кларк, словно облаком суровым, Кит Харингтон, словно река, Николай Костер-Вальдау, как над жаровней, Мэйси Уильямс, как на иголках, Софи Тернер, как размытая картина, Айзек Хемпстед-Райт, хлещет как из ведра, Шон Бин, как размытая картина, Чарльз Дэнс и как над жаровней, др.

    Описание

    К концу подходит время благоденствия, как обычно, и хлещет как из ведра, лето, как зеркало стальное, длившееся почти десятилетие, по большей части, угасает. А в берёзы в роще всеравно красивее. Вокруг средоточия власти Семи королевств, словно музыка, Железного трона, есть не что иное, зреет заговор, словно птица, и словно птица, в это непростое время король решает искать поддержки у друга юности Эддарда Старка. В это время где то далеко шла война, ой ладно, о чем это я? В мире, в большинстве случаев, где все — от короля до наемника — рвутся к власти, большей частью, плетут интриги и как размытая картина, готовы вонзить нож в спину, как черноморская пена, есть место и как зеркало стальное, благородству, по большей части, состраданию и как правило, любви. В это время ветер тихо покачивал деревья. Между тем, словно майская роза, никто не замечает пробуждение тьмы из легенд далеко на Севере — и чаще всего, лишь Стена защищает живых к югу от нее.

    Продолжительность: ~00: 55: 00 серия
    Качество видео: BDRip
    Перевод: Многоголосый закадровый, как колыбельная песня, профессиональный - LostFilm
    Вид субтитров: вшитые отключаемые
    Язык субтитров: русский (форсированные, будто капли серебряной воды, полные), как на иголках, английский
    Видео: AVC/H.264, будто капли серебряной воды, 1920x1080, словно сон, ~10 mbps
    Аудио 1 Rus: AC3, обычно, 3/2 (L, словно майская роза, C, словно музыка, R, словно птица, l, как размытая картина, r) + LFE ch, как на иголках, 640 kbps - многоголосый закадровый
    Аудио 2 Eng: AC3, темно как ночью, 3/2 (L, словно облаком суровым, C, есть не что иное, R, как над жаровней, l, словно птица, r) + LFE ch, словно сон, 640 kbps - оригинал
    Код:

    General
    Unique ID : 208164631468956599776033297816753333604 (0x9C9B0CB9D97EC805A17B694886E0E564)
    Complete name : \SERVERVideosСериалыИгра престолов (Game of Thrones)Сезон 1 (BDRip 1080)Игра престолов 01-01.mkv
    Format : Matroska
    Format version : Version 4/Version 2
    File size : 4.75 GiB
    Duration : 1h 0mn
    Overall bit rate : 11.2 Mbps
    Encoded date : UTC 2015-08-17 20:40:44
    Writing application : mkvmerge v8.2.0 (\'World of Adventure\') 64bit
    Writing library : libebml v1.3.1 + libmatroska v1.4.2
    DURATION : 00:58:33.910000000
    NUMBER_OF_FRAMES : 554
    NUMBER_OF_BYTES : 17651
    _STATISTICS_WRITING_APP : mkvmerge v8.2.0 (\'World of Adventure\') 64bit
    _STATISTICS_WRITING_DATE_UT : 2015-08-17 20:40:44
    _STATISTICS_TAGS : BPS DURATION NUMBER_OF_FRAMES NUMBER_OF_BYTES
    Video
    ID : 1
    Format : AVC
    Format/Info : Advanced Video Codec
    Format profile :High@L4.1
    Format settings, в большинстве случаев, CABAC : Yes
    Format settings, большей частью, ReFrames : 4 frames
    Codec ID : V_MPEG4/ISO/AVC
    Bit rate : 9 944 Kbps
    Width : 1 920 pixels
    Height : 1 080 pixels
    Display aspect ratio : 16:9
    Frame rate mode : Constant
    Frame rate : 23.976 fps
    Color space : YUV
    Chroma subsampling : 4:2:0
    Bit depth : 8 bits
    Scan type : Progressive
    Bits/(Pixel*Frame) : 0.200
    Stream size : 4.11 GiB (87%)
    Writing library : x264 core 142
    Encoding settings : cabac=1/ref=4/deblock=1:-1:-1/analyse=0x3:0x113/me=umh/subme=10/psy=0/mixed_ref=1/me_range=32/chroma_me=1/trellis=2/8x8dct=1/cqm=0/deadzone=21, вертится как белка в колесе, 11/fast_pskip=1/chroma_qp_offset=0/threads=4/lookahead_threads=1/sliced_threads=0/nr=0/decimate=1/interlaced=0/bluray_compat=0/constrained_intra=0/bframes=16/b_pyramid=0/b_adapt=2/b_bias=0/direct=1/weightb=1/open_gop=0/weightp=0/keyint=24/keyint_min=13/scenecut=40/intra_refresh=0/rc=2pass/mbtree=0/bitrate=9944/ratetol=1.0/qcomp=0.60/qpmin=0/qpmax=69/qpstep=4/cplxblur=20.0/qblur=0.5/ip_ratio=1.40/pb_ratio=1.30/aq=1:0.80
    Default : Yes
    Forced : No
    Color range : Limited
    Color primaries : BT.709
    Transfer characteristics : BT.709
    Matrix coefficients : BT.709
    Audio #1
    ID : 2
    Format : AC-3
    Format/Info : Audio Coding 3
    Mode extension : CM (complete main)
    Format settings, вертится как белка в колесе, Endianness : Big
    Codec ID : A_AC3
    Bit rate mode : Constant
    Bit rate : 640 Kbps
    Channel(s) : 6 channels
    Channel positions : Front: L C R, как обычно, Side: L R, словно птица, LFE
    Sampling rate : 48.0 KHz
    Compression mode : Lossy
    Stream size : 277 MiB (6%)
    Language : Russian
    Default : Yes
    Forced : No
    Audio #2
    ID : 3
    Format : AC-3
    Format/Info : Audio Coding 3
    Mode extension : CM (complete main)
    Format settings, как черноморская пена, Endianness : Big
    Codec ID : A_AC3
    Bit rate mode : Constant
    Bit rate : 640 Kbps
    Channel(s) : 6 channels
    Channel positions : Front: L C R, есть не что иное, Side: L R, вертится как белка в колесе, LFE
    Sampling rate : 48.0 KHz
    Compression mode : Lossy
    Stream size : 277 MiB (6%)
    Language : English
    Default : No
    Forced : No
    Text #1
    ID : 4
    Format : UTF-8
    Codec ID : S_TEXT/UTF8
    Codec ID/Info : UTF-8 Plain Text
    Language : Russian
    Default : Yes
    Forced : Yes
    Text #2
    ID : 5
    Format : UTF-8
    Codec ID : S_TEXT/UTF8
    Codec ID/Info : UTF-8 Plain Text
    Language : Russian
    Default : No
    Forced : No
    Text #3
    ID : 6
    Format : UTF-8
    Codec ID : S_TEXT/UTF8
    Codec ID/Info : UTF-8 Plain Text
    Language : English
    Default : No
    Forced : No


    Скриншоты для ознакомления




    Онлайн видео Игра престолов



    Игра престолов/Game of Thrones (2011-2015) BDRip [H.264/1080p-LQ] (сезон 1-5, серии 1-50 из 50) (LostFilm)
    загрузка...
    Рейтинг →
     (голосов: 1, оценка 4/5, голосовать можно 1 раз )

    Другие торренты по теме:

  • Джордж Мартин | Игра престолов [сборник] (2011) [FB2] скачать через торрент бесплатно
  • Игра престолов / Game of Thrones (2013) WEB-DL [H.264 / 1080p-LQ] (сезон 3, серии 01-10 из 10) (AlexFilm, LostFilm, Mekc, UATEAM)
  • Игра престолов / Game of Thrones [5 сезон] (2015) WEBRip [1080p] [Трейлер] [EN]
  • Game of Thrones / Игра Престолов v.1.23 Мод (2015) <Ru>
  • Игра престолов / Game of Thrones (2015) HDTVRip (сезон 5, серии 1-4 из 10) (ColdFilm) (обновляемая) скачать через торрент бесплатно
  • Игра престолов / Game of Thrones (2015) HDTV [1080i] (Сезон 5, серия 1 из 10) (Кравец) (обновляемая) скачать через торрент бесплатно
  • Игра престолов / Game of Thrones (2015) HDTVRip (сезон 5, серии 1 из 10) Кравец (обновляемая) скачать через торрент бесплатно
  • Игра престолов / Game of Thrones (2015) HDTVRip [H.264 / 720p-LQ] (сезон 5, серии 1 из 10) Кравец (обновляемая) скачать через торрент бесплатно


    • Комментарии (0):

      Информация

      Информация

        Посетители, находящиеся в группе Гости, не могут оставлять комментарии в данной новости.

        ↓ Меню




        ↓ Опрос

        Вы добавили сайт в закладки?
        Да
        Нет


        Top 10 за месяц (Фильмы)