.
Авторизация | Регистрация

Торрент скачать бесплатно

» » Королева Юга / Queen of the South (2016) WEB-DL [H.264 / 1080p-LQ] (сезон 1, серии 1-2 из 13) BaibaKo (обновляемая) скачать торрент бесплатно




    Королева Юга / Queen of the South (2016) WEB-DL [H.264 / 1080p-LQ] (сезон 1, серии 1-2 из 13) BaibaKo (обновляемая) скачать торрент бесплатно

    Опубликовал: Админ | Дата: 12-07-2016, 04:00 | Просмотров: 355

    Производство: США
    Жанр: триллер, едва заметно, драма, будто капли серебряной воды, криминал
    Режиссер: Шарлотта Зилинг

    Актеры
    Алиси Брага, вертится как белка в колесе, Жоаким ди Алмейда, хлещет как из ведра, Жустина Мачадо, как обычно, Питер Гадиот, словно река, Хемки Мадера, как на иголках, Джеймс Мартинес, как размытая картина, Даррен Шиэн и обычно, др.

    Описание

    Тереза покидает Мексику после того, как обычно, как убивают её приятеля-наркокурьера. Без дела жить только небо коптить. Обосновавшись в Испании, как принято, она стремится стать всевластным в стране контрабандистом наркотиков и как правило, отомстить за смерть своего любовника.

    Дата мировой премьеры: 23 июня 2016
    Продолжительность: ~ 00: 45: 00 серия
    Качество видео: WEB-DL
    Перевод: Многоголосый закадровый, как черноморская пена, профессиональный -BaibaKo
    Реклама: присутствуют аудио, как размытая картина, видео, темно как ночью, текстовые вставки рекламы.
    Видео: AVC/H.264, как размытая картина, 1916x1076 (16: 9), обычно, ~5 085 Kbps
    Аудио Rus: AC3, как над жаровней, 48, по большей части, 0 kHz, как правило, 6 ch, словно птица, 384 kb/s - многоголосый закадровый
    Аудио Eng: AC3, словно сон, 48, как на иголках, 0 kHz, чаще всего, 6 ch, словно облаком суровым, 384 kb/s - оригинал
    Код:

    Queen.of.the.South.s01e01.HD1080p.WEB-DL.Rus.Eng.BaibaKo.mkv
    Format : Matroska
    Format version : Version 4/Version 2
    File size : 1.87 GiB
    Duration : 45 min
    Overall bit rate : 5 855 kb/s
    Encoded date : UTC 2016-07-10 02:25:10
    Writing application : mkvmerge v9.1.0 (\'Little Earthquakes\') 64bit
    Writing library : libebml v1.3.3 + libmatroska v1.4.4
    Video
    ID : 1
    Format : AVC
    Format/Info : Advanced Video Codec
    Format profile : High@L4
    Format settings, как обычно, CABAC : Yes
    Format settings, как зеркало стальное, ReFrames : 4 frames
    Codec ID : V_MPEG4/ISO/AVC
    Duration : 45 min
    Bit rate : 5 085 kb/s
    Width : 1 916 pixels
    Height : 1 076 pixels
    Display aspect ratio : 16:9
    Frame rate mode : Constant
    Frame rate : 23.976 FPS
    Color space : YUV
    Chroma subsampling : 4:2:0
    Bit depth : 8 bits
    Scan type : Progressive
    Bits/(Pixel*Frame) : 0.103
    Stream size : 1.62 GiB (87%)
    Writing library : x264 core 148 r2692 64f4e24
    Encoding settings : cabac=1/ref=3/deblock=1:0:0/analyse=0x3:0x113/me=hex/subme=7/psy=1/psy_rd=1.00:0.00/mixed_ref=1/me_range=16/chroma_me=1/trellis=1/8x8dct=1/cqm=0/deadzone=21, большей частью, 11/fast_pskip=1/chroma_qp_offset=-2/threads=12/lookahead_threads=2/sliced_threads=0/nr=0/decimate=1/interlaced=0/bluray_compat=0/constrained_intra=0/bframes=3/b_pyramid=2/b_adapt=1/b_bias=0/direct=1/weightb=1/open_gop=0/weightp=2/keyint=240/keyint_min=23/scenecut=40/intra_refresh=0/rc_lookahead=40/rc=crf/mbtree=1/crf=18.0/qcomp=0.60/qpmin=0/qpmax=69/qpstep=4/ip_ratio=1.40/aq=1:1.00
    Default : No
    Forced : No
    Audio #1
    ID : 2
    Format : AC-3
    Format/Info : Audio Coding 3
    Mode extension : CM (complete main)
    Format settings, чаще всего, Endianness : Big
    Codec ID : A_AC3
    Duration : 45 min
    Bit rate mode : Constant
    Bit rate : 384 kb/s
    Channel(s) : 6 channels
    Channel positions : Front: L C R, словно майская роза, Side: L R, как обычно, LFE
    Sampling rate : 48.0 kHz
    Frame rate : 31.250 FPS (1536 spf)
    Compression mode : Lossy
    Stream size : 126 MiB (7%)
    Language : Russian
    Default : Yes
    Forced : No
    Audio #2
    ID : 3
    Format : AC-3
    Format/Info : Audio Coding 3
    Mode extension : CM (complete main)
    Format settings, как размытая картина, Endianness : Big
    Codec ID : A_AC3
    Duration : 45 min
    Bit rate mode : Constant
    Bit rate : 384 kb/s
    Channel(s) : 6 channels
    Channel positions : Front: L C R, словно сон, Side: L R, словно сон, LFE
    Sampling rate : 48.0 kHz
    Frame rate : 31.250 FPS (1536 spf)
    Compression mode : Lossy
    Stream size : 126 MiB (7%)
    Language : English
    Default : No
    Forced : No


    Скриншоты для ознакомления




    Онлайн видео Королева Юга



    Королева Юга/Queen of the South (2016) WEB-DL [H.264/1080p-LQ] (сезон 1, серии 1-2 из 13) BaibaKo (обновляемая)
    загрузка...
    Рейтинг →
     (голосов: 1, оценка 4/5, голосовать можно 1 раз )

    Другие торренты по теме:

  • Королева / Queen (2014) HDRip скачать через торрент бесплатно
  • Королева Марго / La reine Margot / Queen Margot (1994) BDRip [H.264 / 720p-LQ] [Hi10P] [New Directors Cut] торрент скачать бесплатно
  • Royal Detective: Queen of Shadows / Королевский Детектив. Королева Теней (2014) [Ru] Unofficial [Collector’s Edition / Коллекционное издание] скачать через торрент бесплатно
  • Африканская королева / The African Queen (1951) BDRip [H.264 / 720p] скачать через торрент бесплатно
  • Animal Planet. Королева львов / The Lion Queen (2015) HDTVRip [Серии 1-6 из 6] скачать через торрент бесплатно
  • Grim Tales 4: The Stone Queen / Страшные сказки. Каменная королева (2013) [Ru] Unofficial [Collectors Edition / Коллекционное издание] скачать через торрент бесплатно
  • Королева скота из Монтаны / Cattle Queen of Montana (1954) DVDRip [H.264] [VO] скачать через торрент бесплатно
  • Приключения Присциллы, королевы пустыни / The Adventures of Priscilla, Queen of the Desert (1994) HDTV [H.264 / 1080i] скачать через торрент бесплатно


    • Комментарии (0):

      Информация

      Информация

        Посетители, находящиеся в группе Гости, не могут оставлять комментарии в данной новости.

        ↓ Меню




        ↓ Опрос

        Вы добавили сайт в закладки?
        Да
        Нет


        Top 10 за неделю (Фильмы)