.
Авторизация | Регистрация
Хочешь лучшие торренты? Добавь свой email!
Добавить

Торрент скачать бесплатно

» » Запрос в друзья / Friend Request (2016) BDRip [H.264 / 720p-LQ] торрент скачать бесплатно




    Запрос в друзья / Friend Request (2016) BDRip [H.264 / 720p-LQ] торрент скачать бесплатно

    Опубликовал: Админ | Дата: 11-07-2016, 04:00 | Просмотров: 70

    Производство: Германия/Seven Pictures, Wiedemann Berg Filmproduktion
    Жанр: Триллер
    Режиссер: Симон Ферхоэвен
    Продюсер: Квирин Берг, Макс Видерманн, Мэттью Баллен

    Актеры
    Алисия Дебнем-Кери, Уильям Моусли, Коннор Паоло, Бритт Морган, Брук Маркам, Шон Маркетт, Лизль Алерс, Шэшони Холл

    Описание

    Вас добавляет в друзья одноклассник, однокурсник или коллега с работы, с которым вы практически никогда не общались, и начинает буквально атаковать вас сообщениями, почему-то решив, что вы с ним лучшие друзья. Знакомая ситуация? В подобную попадает Лора — главная героиня леденящего кровь триллера Запрос в друзья. Решение удалить из френд-листа навязчивую и странноватую однокурсницу приведет к таким последствиям, которые не смогли бы предугадать даже самые большие любители хорроров.

    Возраст: 16+ (зрителям, достигшим 16 лет)
    Рейтинг MPAA: этот продукт не был классифицирован
    Дата мировой премьеры: 7 января 2016
    Дата российской премьеры: 17 марта 2016, Люксор
    Продолжительность: 17 марта 2016, Люксор
    Качество видео: BDRip
    Перевод: Дублированный(iTunes)
    Вид субтитров: Отсутствуют
    Видео: AVC/H.264, 1280x544 (2.35: 1), ~2052 Kbps
    Аудио 01: AC-3, 48.0 KHz, 6 ch, 384 Kbps, CBR | Русский (DUB) (iTunes)
    Аудио 02: DTS, 48.0 KHz, 6 ch, 1510 Kbps, CBR | Немецкий
    Код:

    General
    Unique ID : 175215006260136087209436555339536997017 (0x83D12EC72595F28499800C9BAAEB1A99)
    Complete name : ..Запрос в друзья [2016].mkv
    Format : Matroska
    Format version : Version 4/Version 2
    File size : 2.60 GiB
    Duration : 1h 32mn
    Overall bit rate : 4 020 Kbps
    Encoded date : UTC 2016-07-09 11:59:00
    Writing application : mkvmerge v8.9.0 (\'Father Daughter\') 64bit
    Writing library : libebml v1.3.3 + libmatroska v1.4.4
    Video
    ID : 1
    Format : AVC
    Format/Info : Advanced Video Codec
    Format profile :High@L4.1
    Format settings, CABAC : Yes
    Format settings, ReFrames : 5 frames
    Codec ID : V_MPEG4/ISO/AVC
    Duration : 1h 32mn
    Bit rate : 2 126 Kbps
    Width : 1 280 pixels
    Height : 544 pixels
    Display aspect ratio : 2.35:1
    Frame rate mode : Constant
    Frame rate : 23.976 (24000/1001) fps
    Color space : YUV
    Chroma subsampling : 4:2:0
    Bit depth : 8 bits
    Scan type : Progressive
    Bits/(Pixel*Frame) : 0.127
    Stream size : 1.37 GiB (53%)
    Title : encounters-unfriend_720p
    Writing library : x264 core 148 r2694 3b70645
    Encoding settings : cabac=1/ref=5/deblock=1:-1:-1/analyse=0x3:0x133/me=umh/subme=7/psy=1/psy_rd=1.00:0.15/mixed_ref=1/me_range=16/chroma_me=1/trellis=1/8x8dct=1/cqm=0/deadzone=21, 11/fast_pskip=0/chroma_qp_offset=-3/threads=17/lookahead_threads=2/sliced_threads=0/nr=0/decimate=1/interlaced=0/bluray_compat=0/constrained_intra=0/bframes=3/b_pyramid=2/b_adapt=1/b_bias=0/direct=1/weightb=1/open_gop=0/weightp=2/keyint=250/keyint_min=23/scenecut=40/intra_refresh=0/rc_lookahead=40/rc=crf/mbtree=1/crf=20.0/qcomp=0.60/qpmin=0/qpmax=69/qpstep=4/ip_ratio=1.40/aq=1:1.00
    Default : Yes
    Forced : No
    Audio #1
    ID : 2
    Format : AC-3
    Format/Info : Audio Coding 3
    Mode extension : CM (complete main)
    Format settings, Endianness : Big
    Codec ID : A_AC3
    Duration : 1h 32mn
    Bit rate mode : Constant
    Bit rate : 384 Kbps
    Channel(s) : 6 channels
    Channel positions : Front: L C R, Side: L R, LFE
    Sampling rate : 48.0 KHz
    Frame rate : 31.250 fps (1536 spf)
    Compression mode : Lossy
    Stream size : 253 MiB (10%)
    Title : DUB (iTunes) 5.1 @ 384 Kbps
    Language : Russian
    Default : Yes
    Forced : No
    Audio #2
    ID : 3
    Format : DTS
    Format/Info : Digital Theater Systems
    Mode : 16
    Format settings, Endianness : Big
    Codec ID : A_DTS
    Duration : 1h 32mn
    Bit rate mode : Constant
    Bit rate : 1 509 Kbps
    Channel(s) : 6 channels
    Channel positions : Front: L C R, Side: L R, LFE
    Sampling rate : 48.0 KHz
    Frame rate : 93.750 fps (512 spf)
    Bit depth : 24 bits
    Compression mode : Lossy
    Stream size : 998 MiB (38%)
    Title : German DTS 5.1 @ 1 510 Kbps
    Language : German
    Default : No
    Forced : No
    Menu
    00:00:00.000 : en:00:00:00.000
    00:06:16.585 : en:00:06:16.585
    00:15:28.177 : en:00:15:28.177
    00:23:20.774 : en:00:23:20.774
    00:32:18.645 : en:00:32:18.645
    00:42:23.875 : en:00:42:23.875
    00:47:51.410 : en:00:47:51.410
    00:57:54.429 : en:00:57:54.429
    01:05:29.300 : en:01:05:29.300
    01:13:31.157 : en:01:13:31.157
    01:19:58.669 : en:01:19:58.669
    01:26:23.929 : en:01:26:23.929


    Скриншоты для ознакомления




    Онлайн видео Запрос в друзья



    Запрос в друзья/Friend Request (2016) BDRip [H.264/720p-LQ]
    загрузка...
    Рейтинг →
     (голосов: 1, оценка 5/5, голосовать можно 1 раз )

    Другие торренты по теме:

  • Запрос в друзья / Friend Request (2016) SATRip [Line]
  • Запрос в друзья / Friend_request (2016)
  • Запрос в друзья / Friend Request (2016) BDRip [H.264 / 1080p]
  • Запрос в друзья / Friend Request (2016) BDRip [H.264 / 720p-LQ] [Line]
  • Запрос в друзья / Friend Request (2016) AC3 5.1 [hand made]
  • Запрос в друзья / Friend Request (2016) HDRip
  • Запрос в друзья / Friend Request (2016) HDRip
  • Запрос в друзья / Friend Request (2016) BDRip [H.264 / 720p] [EN]


    • Комментарии (0):

      Информация

      Информация

        Посетители, находящиеся в группе Гости, не могут оставлять комментарии в данной новости.

        ↓ Меню




        ↓ Опрос

        Вы добавили сайт в закладки?
        Да
        Нет


        Top 10 за месяц (Фильмы)