.
Авторизация | Регистрация
Хочешь лучшие торренты? Добавь свой email!
Добавить

Торрент скачать бесплатно

» » 300 спартанцев: Расцвет империи / 300: Rise of an Empire (2013) BDRip [H.265 / 1080p] торрент скачать бесплатно




    300 спартанцев: Расцвет империи / 300: Rise of an Empire (2013) BDRip [H.265 / 1080p] торрент скачать бесплатно

    Опубликовал: Админ | Дата: 11-07-2016, 04:00 | Просмотров: 24

    Производство: США
    Жанр: Фэнтези, Боевик, Драма, Военный
    Режиссер: Ноам Мурро

    Актеры
    Салливан Степлтон, Ева Грин, Джек О’Коннелл, Каллэн Мулвей, Ганс Мэтисон, Родриго Санторо, Лина Хиди, Дэвид Уэнэм, Эндрю Тирнан, Эндрю Плевин

    Описание

    После победы над царем Леонидом персидская армия во главе с Ксерксом движется на юг. На её пути оказывается флот Афин под руководством адмирала Фемистокла. Силы противников не равны, и Фемистокл вынужден вступить в союз с заклятым врагом афинского государства Спартой. Только объединившись у враждующих полисов-государств есть шанс что-то противопоставить могущественному Ксерксу.

    Возраст: 16+ (зрителям, достигшим 16 лет)
    Рейтинг MPAA: R (лицам до 17 лет обязательно присутствие взрослого)
    Дата выхода DVD/Blu-ray релиза: 3 июля 2014, CP Дистрибуция
    Продолжительность: 01: 42: 36
    Качество видео: BDRip
    Перевод: Дублированный
    Язык субтитров: Русский (полные, форсированные), Английский (полные, SDH)
    Вид субтитров: Вшитые отключаемые
    Видео: HEVC/H.265, 1920x800, ~7705 Kbps
    Аудио 1: AC3, 6 ch, 448 Kbps, CBR - Дублированный (BD CEE)
    Аудио 2: AC3, 6 ch, 640 Kbps, CBR - Английский, оригинал
    Код:

    General
    Unique ID : 198876728869591536703675223490462332075 (0x959E43C5D0BB2166B38BF3E6E69DB4AB)
    Complete name : G:Torrents300 спартанцев. Расцвет.империи (1080p) HEVC.mkv
    Format : Matroska
    Format version : Version 4/Version 2
    File size : 6.30 GiB
    Duration : 1h 42mn
    Overall bit rate : 8 794 Kbps
    Encoded date : UTC 2016-07-09 15:18:08
    Writing application : mkvmerge v9.2.0 (\'Photograph\') 64bit
    Writing library : libebml v1.3.3 + libmatroska v1.4.4
    Video
    ID : 1
    Format : HEVC
    Format/Info : High Efficiency Video Coding
    Format profile : Main@L4@Main
    Codec ID : V_MPEGH/ISO/HEVC
    Duration : 1h 42mn
    Bit rate : 7 705 Kbps
    Width : 1 920 pixels
    Height : 800 pixels
    Display aspect ratio : 2.40:1
    Frame rate mode : Constant
    Frame rate : 23.976 (24000/1001) fps
    Color space : YUV
    Chroma subsampling : 4:2:0
    Bit depth : 8 bits
    Bits/(Pixel*Frame) : 0.209
    Stream size : 5.52 GiB (88%)
    Writing library : x265 1.9+229-a932b4366235:[Windows][GCC 5.3.1][64 bit] 8bit
    Encoding settings : wpp/ctu=64/min-cu-size=8/max-tu-size=32/tu-intra-depth=1/tu-inter-depth=1/me=2/subme=5/merange=92/no-rect/no-amp/max-merge=4/temporal-mvp/no-early-skip/rskip/rdpenalty=0/no-tskip/no-tskip-fast/strong-intra-smoothing/no-lossless/no-cu-lossless/no-constrained-intra/no-fast-intra/open-gop/no-temporal-layers/interlace=0/keyint=250/min-keyint=23/scenecut=40/rc-lookahead=60/lookahead-slices=0/bframes=8/bframe-bias=0/b-adapt=2/ref=5/limit-refs=3/no-limit-modes/weightp/weightb/aq-mode=1/qg-size=64/aq-strength=0.50/cbqpoffs=0/crqpoffs=0/rd=3/psy-rd=2.00/rdoq-level=2/psy-rdoq=0.00/no-rd-refine/signhide/deblock=-3:-3/no-sao/no-sao-non-deblock/b-pyramid/no-cutree/no-intra-refresh/rc=2/pass/bitrate=7716/qcomp=0.60/qpmin=0/qpmax=51/qpstep=4/cplxblur=20.0/qblur=0.5/ipratio=1.40/pbratio=1.30
    Default : Yes
    Forced : No
    Audio #1
    ID : 2
    Format : AC-3
    Format/Info : Audio Coding 3
    Mode extension : CM (complete main)
    Format settings, Endianness : Big
    Codec ID : A_AC3
    Duration : 1h 42mn
    Bit rate mode : Constant
    Bit rate : 448 Kbps
    Channel(s) : 6 channels
    Channel positions : Front: L C R, Side: L R, LFE
    Sampling rate : 48.0 KHz
    Frame rate : 31.250 fps (1536 spf)
    Compression mode : Lossy
    Stream size : 329 MiB (5%)
    Language : Russian
    Default : Yes
    Forced : No
    Audio #2
    ID : 3
    Format : AC-3
    Format/Info : Audio Coding 3
    Mode extension : CM (complete main)
    Format settings, Endianness : Big
    Codec ID : A_AC3
    Duration : 1h 42mn
    Bit rate mode : Constant
    Bit rate : 640 Kbps
    Channel(s) : 6 channels
    Channel positions : Front: L C R, Side: L R, LFE
    Sampling rate : 48.0 KHz
    Frame rate : 31.250 fps (1536 spf)
    Compression mode : Lossy
    Stream size : 470 MiB (7%)
    Language : English
    Default : No
    Forced : No
    Text #1
    ID : 4
    Format : UTF-8
    Codec ID : S_TEXT/UTF8
    Codec ID/Info : UTF-8 Plain Text
    Duration : 1h 34mn
    Bit rate : 0 bps
    Count of elements : 2
    Stream size : 132 Bytes (0%)
    Title : Forced
    Language : Russian
    Default : No
    Forced : No
    Text #2
    ID : 5
    Format : UTF-8
    Codec ID : S_TEXT/UTF8
    Codec ID/Info : UTF-8 Plain Text
    Duration : 1h 35mn
    Bit rate : 59 bps
    Count of elements : 920
    Stream size : 41.6 KiB (0%)
    Language : Russian
    Default : No
    Forced : No
    Text #3
    ID : 6
    Format : UTF-8
    Codec ID : S_TEXT/UTF8
    Codec ID/Info : UTF-8 Plain Text
    Duration : 1h 30mn
    Bit rate : 46 bps
    Count of elements : 922
    Stream size : 31.0 KiB (0%)
    Language : English
    Default : No
    Forced : No
    Text #4
    ID : 7
    Format : UTF-8
    Codec ID : S_TEXT/UTF8
    Codec ID/Info : UTF-8 Plain Text
    Duration : 1h 42mn
    Bit rate : 44 bps
    Count of elements : 1005
    Stream size : 33.2 KiB (0%)
    Title : SDH
    Language : English
    Default : No
    Forced : No
    Menu
    00:00:00.000 : en:Chapter 1
    00:10:26.375 : en:Chapter 2
    00:20:54.628 : en:Chapter 3
    00:31:15.290 : en:Chapter 4
    00:40:58.497 : en:Chapter 5
    00:50:50.714 : en:Chapter 6
    01:00:05.435 : en:Chapter 7
    01:09:51.812 : en:Chapter 8
    01:19:51.244 : en:Chapter 9
    01:31:07.295 : en:Chapter 10
    01:33:57.131 : en:Chapter 11

    Скриншоты для ознакомления



    __Encode_____________Source__



    Все одноименные релизы в Клубе
    Время раздачи: 24/7 (круглосуточно) (до появления первых 3-5 скачавших)

    300 спартанцев: Расцвет империи/300: Rise of an Empire (2013) BDRip [H.265/1080p]
    загрузка...
    Рейтинг →
     (голосов: 1, оценка 3/5, голосовать можно 1 раз )

    Другие торренты по теме:

  • 300 спартанцев: Расцвет империи / 300: Rise of an Empire (2014) BDRip [720p] [hand made 60fps] скачать через торрент бесплатно
  • 300 спартанцев: Расцвет империи / 300: Rise of an Empire (2014) HDRip [AVO] скачать через торрент бесплатно
  • 300 спартанцев: Расцвет империи / 300: Rise of an Empire (2013) BDRip [H.264 / 1080p-LQ]


    • Комментарии (0):

      Информация

      Информация

        Посетители, находящиеся в группе Гости, не могут оставлять комментарии в данной новости.

        ↓ Меню




        ↓ Опрос

        Вы добавили сайт в закладки?
        Да
        Нет


        Top 10 за месяц (Фильмы)