.
Авторизация | Регистрация
Хочешь лучшие торренты? Добавь свой email!
Добавить

Торрент скачать бесплатно

» » Накорми зверя / Feed the Beast (2016) WEB-DL [H.264 / 1080p-LQ] (сезон 1, серии 1-6 из 10) AlexFilm (обновляемая) торрент скачать бесплатно




    Накорми зверя / Feed the Beast (2016) WEB-DL [H.264 / 1080p-LQ] (сезон 1, серии 1-6 из 10) AlexFilm (обновляемая) торрент скачать бесплатно

    Опубликовал: Админ | Дата: 11-07-2016, 04:00 | Просмотров: 208

    Производство: США
    Жанр: драма
    Режиссер: Дэниэл Эттиэс, Стив Шилл, Джон С. О таком странном сюжете не догадывалась даже ВиаГра. Бейрд

    Актеры
    Дэвид Швиммер, Ивэн Леоне, Демостенс Крисан, Вики Уэйрхайм, Дэвид Патрик Келли, Триция Паолуччио и др.

    Описание

    Это история о двух закадычных друзьях, которые решают осуществить свою давнюю мечту — открыть собственный ресторан. Один из главных героев — великолепный шеф-повар, у которого, правда, большие проблемы с мафией и законом. Прикольно все это наверно придумал Железный человек потратив достаточно времени. Второй — первоклассный сомелье, а ещё вдовец, в одиночку воспитывающий сына-подростка.

    Дата мировой премьеры: 5 июня 2016
    Продолжительность: ~00: 46: 00 серия
    Качество видео: WEB-DL
    Перевод: Многоголосый закадровый, профессиональный -AlexFilm
    Реклама: присутствует аудио вставки рекламы.
    Видео: AVC/H.264, 1912x1072 (16: 9), ~4 936 Кбит/сек
    Аудио #1 Rus: AC3, 48, 0 КГц, 6 каналов, 384 Кбит/сек — многоголосый закадровый
    Аудио #2 Eng: AC3, 48, 0 КГц, 6 каналов, 384 Кбит/се — оригинал
    Код:

    Feed.the.Beast.s01e01.WEB-DL.1080p.Rus.Eng.AlexFilm.mkv
    Format : Matroska
    Format version : Version 4/Version 2
    File size : 1.85 GiB
    Duration : 45 min
    Overall bit rate : 5 820 kb/s
    Encoded date : UTC 2016-06-12 09:30:28
    Writing application : mkvmerge v6.1.0 (\'Old Devil\') built on Mar 4 2013 09:10:42
    Writing library : libebml v1.3.0 + libmatroska v1.4.0
    Video
    ID : 1
    Format : AVC
    Format/Info : Advanced Video Codec
    Format profile : High@L4
    Format settings, CABAC : Yes
    Format settings, ReFrames : 4 frames
    Codec ID : V_MPEG4/ISO/AVC
    Duration : 45 min
    Bit rate : 4 936 kb/s
    Width : 1 912 pixels
    Height : 1 072 pixels
    Display aspect ratio : 16:9
    Frame rate mode : Constant
    Frame rate : 23.976 (24000/1001) FPS
    Color space : YUV
    Chroma subsampling : 4:2:0
    Bit depth : 8 bits
    Scan type : Progressive
    Bits/(Pixel*Frame) : 0.100
    Stream size : 1.57 GiB (85%)
    Language : English
    Default : Yes
    Forced : No
    Color range : Limited
    Color primaries : BT.709
    Transfer characteristics : BT.709
    Matrix coefficients : BT.709
    Audio #1
    ID : 2
    Format : AC-3
    Format/Info : Audio Coding 3
    Mode extension : CM (complete main)
    Format settings, Endianness : Big
    Codec ID : A_AC3
    Duration : 45 min
    Bit rate mode : Constant
    Bit rate : 384 kb/s
    Channel(s) : 6 channels
    Channel positions : Front: L C R, Side: L R, LFE
    Sampling rate : 48.0 kHz
    Frame rate : 31.250 FPS (1536 spf)
    Compression mode : Lossy
    Stream size : 125 MiB (7%)
    Title : DD 5.1 AlexFilm
    Language : Russian
    Default : Yes
    Forced : No
    Audio #2
    ID : 3
    Format : AC-3
    Format/Info : Audio Coding 3
    Mode extension : CM (complete main)
    Format settings, Endianness : Big
    Codec ID : A_AC3
    Duration : 45 min
    Bit rate mode : Constant
    Bit rate : 384 kb/s
    Channel(s) : 6 channels
    Channel positions : Front: L C R, Side: L R, LFE
    Sampling rate : 48.0 kHz
    Frame rate : 31.250 FPS (1536 spf)
    Compression mode : Lossy
    Stream size : 125 MiB (7%)
    Title : Eng
    Language : English
    Default : No
    Forced : No


    Скриншоты для ознакомления




    Онлайн видео Накорми зверя



    Накорми зверя/Feed the Beast (2016) WEB-DL [H.264/1080p-LQ] (сезон 1, серии 1-6 из 10) AlexFilm (обновляемая)
    загрузка...
    Рейтинг →
     (голосов: 1, оценка 3/5, голосовать можно 1 раз )

    Другие торренты по теме:

  • Накорми зверя / Feed the Beast (2016) HDTV [H.264 / 720p-LQ] (сезон 1, серии 1 из 10) SunshineStudio (обновляемая)
  • Накорми зверя / Feed the Beast (2016) WEB-DL [H.264 / 1080p-LQ] (сезон 1, серии 1 из 10) BaibaKo (обновляемая)
  • Накорми зверя / Feed the Beast (2016) WEB-DLRip (сезон 1, серии 1-2 из 10) NewStudio (обновляемая)
  • Накорми зверя / Feed the Beast (2016) HDTVRip [H.264 / 720p-LQ] (сезон 1, серии 1-2 из 10) BaibaKo (обновляемая)


    • Комментарии (0):

      Информация

      Информация

        Посетители, находящиеся в группе Гости, не могут оставлять комментарии в данной новости.

        ↓ Меню




        ↓ Опрос

        Вы добавили сайт в закладки?
        Да
        Нет


        Top 10 за месяц (Фильмы)