.
Авторизация | Регистрация
Хочешь лучшие торренты? Добавь свой email!
Добавить

Торрент скачать бесплатно

» » Живые и мертвые / The Living And The Dead (2016) WEB-DLRip [H.264 / 1080p-LQ] (сезон 1, серии 1 из 6) BaibaKo (обновляемая) торрент скачать бесплатно




    Живые и мертвые / The Living And The Dead (2016) WEB-DLRip [H.264 / 1080p-LQ] (сезон 1, серии 1 из 6) BaibaKo (обновляемая) торрент скачать бесплатно

    Опубликовал: Админ | Дата: 11-07-2016, 04:00 | Просмотров: 73

    Производство: Великобритания
    Жанр: ужасы, триллер, драма
    Режиссер: Сэмюэл Донован, Элис Тротон

    Актеры
    Колин Морган, Эмбер Фернэ, Джоэль Гильман, Таллула Роуз Хэддон, Сара Коунселл, Дэвид Оукс, Хлоя Пирри, Исаак Эндрюс, Керри Хэйес, Марианн Олдхэм и др.

    Описание

    Сомерсет, 1894. Дом, который почти так же стар, как и окружающий английский пейзаж. Прикольно все это наверно придумал Железный человек потратив достаточно времени. Блестящая молодая пара наследует ферму. Они полны решимости вместе начать новую жизнь. Но их появление в этом затерянном уголке Англии пробуждает странные, тревожные и опасные сверхъестественные явления, которые начинают угрожать их браку. Эта драма уходит корнями в суеверия сельского мира, в то время как наступающая промышленная революция срывает покровы с древних поверий. В центре сюжета история любви Нейтана и Шарлотты Эпплби: их объединяют глубокие чувства, но оказавшись под постоянным напором сверхъестественного, им придется бороться, чтобы спасти свой брак и свой дом.

    Дата мировой премьеры: 28 июня 2016
    Продолжительность: ~01: 00: 00 серия
    Качество видео: WEB-DL
    Перевод: Многоголосый закадровый, профессиональный -BaibaKo
    Реклама: присутствуют аудио, видео, текстовые вставки рекламы.
    Видео: AVC/H.264, 1912x1072 (16: 9), ~5102 Кбит/сек
    Аудио #1 Rus: AC3, 48, 0 КГц, 2 канала, 384 Кбит/сек — многоголосый закадровый
    Аудио #2 Eng: AC3, 48, 0 КГц, 2 канала, 384 Кбит/сек — оригинал
    Код:

    The.Living.and.the.Dead.HD1080p.WEB-DL.Rus.Eng.BaibaKoThe.Living.and.the.Dead.s01e01.HD1080p.WEB-DL.Rus.Eng.BaibaKo.mkv
    Format : Matroska
    Format version : Version 4/Version 2
    File size : 2.43 GiB
    Duration : 59 min
    Overall bit rate : 5 872 kb/s
    Encoded date : UTC 2016-07-10 14:23:52
    Writing application : mkvmerge v9.1.0 (\'Little Earthquakes\') 64bit
    Writing library : libebml v1.3.3 + libmatroska v1.4.4
    Video
    ID : 1
    Format : AVC
    Format/Info : Advanced Video Codec
    Format profile : High@L4
    Format settings, CABAC : Yes
    Format settings, ReFrames : 4 frames
    Codec ID : V_MPEG4/ISO/AVC
    Duration : 59 min
    Bit rate : 5 102 kb/s
    Width : 1 912 pixels
    Height : 1 072 pixels
    Display aspect ratio : 16:9
    Frame rate mode : Constant
    Frame rate : 25.000 FPS
    Color space : YUV
    Chroma subsampling : 4:2:0
    Bit depth : 8 bits
    Scan type : Progressive
    Bits/(Pixel*Frame) : 0.100
    Stream size : 2.11 GiB (87%)
    Writing library : x264 core 148 r2692 64f4e24
    Encoding settings : cabac=1/ref=3/deblock=1:0:0/analyse=0x3:0x113/me=hex/subme=7/psy=1/psy_rd=1.00:0.00/mixed_ref=1/me_range=16/chroma_me=1/trellis=1/8x8dct=1/cqm=0/deadzone=21, 11/fast_pskip=1/chroma_qp_offset=-2/threads=12/lookahead_threads=2/sliced_threads=0/nr=0/decimate=1/interlaced=0/bluray_compat=0/constrained_intra=0/bframes=3/b_pyramid=2/b_adapt=1/b_bias=0/direct=1/weightb=1/open_gop=0/weightp=2/keyint=250/keyint_min=25/scenecut=40/intra_refresh=0/rc_lookahead=40/rc=crf/mbtree=1/crf=18.0/qcomp=0.60/qpmin=0/qpmax=69/qpstep=4/ip_ratio=1.40/aq=1:1.00
    Default : No
    Forced : No
    Audio #1
    ID : 2
    Format : AC-3
    Format/Info : Audio Coding 3
    Mode extension : CM (complete main)
    Format settings, Endianness : Big
    Codec ID : A_AC3
    Duration : 59 min
    Bit rate mode : Constant
    Bit rate : 384 kb/s
    Channel(s) : 2 channels
    Channel positions : Front: L R
    Sampling rate : 48.0 kHz
    Frame rate : 31.250 FPS (1536 spf)
    Compression mode : Lossy
    Stream size : 163 MiB (7%)
    Language : Russian
    Default : Yes
    Forced : No
    Audio #2
    ID : 3
    Format : AC-3
    Format/Info : Audio Coding 3
    Mode extension : CM (complete main)
    Format settings, Endianness : Big
    Codec ID : A_AC3
    Duration : 59 min
    Bit rate mode : Constant
    Bit rate : 384 kb/s
    Channel(s) : 2 channels
    Channel positions : Front: L R
    Sampling rate : 48.0 kHz
    Frame rate : 31.250 FPS (1536 spf)
    Compression mode : Lossy
    Stream size : 163 MiB (7%)
    Language : English
    Default : No
    Forced : No


    Скриншоты для ознакомления




    Онлайн видео Живые и мертвые



    Живые и мертвые/The Living And The Dead (2016) WEB-DLRip [H.264/1080p-LQ] (сезон 1, серии 1 из 6) BaibaKo (обновляемая)
    загрузка...
    Рейтинг →
     (голосов: 1, оценка 3/5, голосовать можно 1 раз )

    Другие торренты по теме:

  • Неле Нойхаус | Живые и мертвые (2017) [FB2]


    • Комментарии (0):

      Информация

      Информация

        Посетители, находящиеся в группе Гости, не могут оставлять комментарии в данной новости.

        ↓ Меню




        ↓ Опрос

        Вы добавили сайт в закладки?
        Да
        Нет


        Top 10 за месяц (Фильмы)