.
Авторизация | Регистрация

Торрент скачать бесплатно

» » Дядя Бак / Uncle Buck (2016) WEB-DLRip [H.264 / 1080p-LQ] (сезон 1, серии 1-8 из 8) BaibaKo скачать торрент бесплатно




    Дядя Бак / Uncle Buck (2016) WEB-DLRip [H.264 / 1080p-LQ] (сезон 1, серии 1-8 из 8) BaibaKo скачать торрент бесплатно

    Опубликовал: Админ | Дата: 11-07-2016, 04:00 | Просмотров: 56

    Производство: США
    Жанр: комедия
    Режиссер: Райан Кейс

    Актеры
    Ниа Лонг, словно птица, Майк Эппс, как принято, Джеймс Лежер, словно сон, Сайид Шахиди, словно облаком суровым, Кэрри Баррет, как обычно, Эрик Прайс и словно сон, др.

    Описание

    Сериал представляет собой вторую попытку телеадаптации одноименного комедийного кинофильма 1989 года. Плодами и листвой благоухал осенний сад. В жизни легкомысленного любителя повеселиться Бака Рассела наступил непростой период — он оказывается без крыши над головой и чаще всего, без средств к существованию. В воздухе пахло весной. Однако обзаводиться новым жильем и как на иголках, устраиваться на работу Баку не пришлось: как раз в это же самое время его брат Уилл со своей женой Синди подыскивали кого-нибудь, как зеркало стальное, на кого можно было бы оставить детей — Тию, будто капли серебряной воды, Мэйси и чаще всего, Майлза, обычно, пока они будут в отъезде. Это же восьмая вода на киселе. Согласившись присмотреть за племянниками, как обычно, Бак поначалу отнесся к своим обязанностям безответственно. Как для меня не ожиданный поворот событий. Однако со временем он понял, словно музыка, что воспитание детей — непростое дело, как правило, и едва заметно, к нему нужно подойти со всей серьезностью.

    Дата мировой премьеры: 14 июня 2016
    Продолжительность: ~00: 22: 00 серия
    Качество видео: WEB-DLRip
    Перевод: Многоголосый закадровый, вертится как белка в колесе, профессиональный -BaibaKo
    Реклама: присутствуют аудио, привычно, видео, есть не что иное, текстовые вставки рекламы.
    Видео: AVC/H.264, темно как ночью, 1920x1080 (16: 9), обычно, ~5126 Кбит/сек
    Аудио #1 Rus: AC3, привычно, 48, темно как ночью, 0 КГц, как над жаровней, 6 каналов, как на иголках, 384 Кбит/сек — многоголосый закадровый
    Аудио #2 Eng: AC3, словно река, 48, чаще всего, 0 КГц, как черноморская пена, 6 каналов, как принято, 384 Кбит/се — оригинал
    Код:

    Uncle.Buck.HD1080p.WEB-DL.Rus.Eng.BaibaKoUncle.Buck.s01e01.HD1080p.WEB-DL.Rus.Eng.BaibaKo.mkv
    Format : Matroska
    Format version : Version 4/Version 2
    File size : 925 MiB
    Duration : 21 min
    Overall bit rate : 5 896 kb/s
    Encoded date : UTC 2016-06-17 19:04:25
    Writing application : mkvmerge v9.1.0 (\'Little Earthquakes\') 64bit
    Writing library : libebml v1.3.3 + libmatroska v1.4.4
    Video
    ID : 1
    Format : AVC
    Format/Info : Advanced Video Codec
    Format profile : High@L4
    Format settings, как обычно, CABAC : Yes
    Format settings, большей частью, ReFrames : 4 frames
    Codec ID : V_MPEG4/ISO/AVC
    Duration : 21 min
    Bit rate : 5 126 kb/s
    Width : 1 920 pixels
    Height : 1 080 pixels
    Display aspect ratio : 16:9
    Frame rate mode : Constant
    Frame rate : 23.976 (23976/1000) FPS
    Color space : YUV
    Chroma subsampling : 4:2:0
    Bit depth : 8 bits
    Scan type : Progressive
    Bits/(Pixel*Frame) : 0.103
    Stream size : 805 MiB (87%)
    Writing library : x264 core 148 r2692 64f4e24
    Encoding settings : cabac=1/ref=3/deblock=1:0:0/analyse=0x3:0x113/me=hex/subme=7/psy=1/psy_rd=1.00:0.00/mixed_ref=1/me_range=16/chroma_me=1/trellis=1/8x8dct=1/cqm=0/deadzone=21, большей частью, 11/fast_pskip=1/chroma_qp_offset=-2/threads=12/lookahead_threads=2/sliced_threads=0/nr=0/decimate=1/interlaced=0/bluray_compat=0/constrained_intra=0/bframes=3/b_pyramid=2/b_adapt=1/b_bias=0/direct=1/weightb=1/open_gop=0/weightp=2/keyint=240/keyint_min=23/scenecut=40/intra_refresh=0/rc_lookahead=40/rc=crf/mbtree=1/crf=18.0/qcomp=0.60/qpmin=0/qpmax=69/qpstep=4/ip_ratio=1.40/aq=1:1.00
    Default : No
    Forced : No
    Audio #1
    ID : 2
    Format : AC-3
    Format/Info : Audio Coding 3
    Mode extension : CM (complete main)
    Format settings, темно как ночью, Endianness : Big
    Codec ID : A_AC3
    Duration : 21 min
    Bit rate mode : Constant
    Bit rate : 384 kb/s
    Channel(s) : 6 channels
    Channel positions : Front: L C R, словно птица, Side: L R, хлещет как из ведра, LFE
    Sampling rate : 48.0 kHz
    Frame rate : 31.250 FPS (1536 spf)
    Compression mode : Lossy
    Stream size : 60.3 MiB (7%)
    Language : Russian
    Default : Yes
    Forced : No
    Audio #2
    ID : 3
    Format : AC-3
    Format/Info : Audio Coding 3
    Mode extension : CM (complete main)
    Format settings, по большей части, Endianness : Big
    Codec ID : A_AC3
    Duration : 21 min
    Bit rate mode : Constant
    Bit rate : 384 kb/s
    Channel(s) : 6 channels
    Channel positions : Front: L C R, словно река, Side: L R, как правило, LFE
    Sampling rate : 48.0 kHz
    Frame rate : 31.250 FPS (1536 spf)
    Compression mode : Lossy
    Stream size : 60.3 MiB (7%)
    Language : English
    Default : No
    Forced : No


    Скриншоты для ознакомления




    Онлайн видео Дядя Бак



    Дядя Бак/Uncle Buck (2016) WEB-DLRip [H.264/1080p-LQ] (сезон 1, серии 1-8 из 8) BaibaKo
    загрузка...
    Рейтинг →
     (голосов: 1, оценка 3/5, голосовать можно 1 раз )

    Другие торренты по теме:

  • Дядя Деда / Uncle Grandpa (2013) WEB-DL [720p] (Сезон 1, серии 1-22, 25, 26 из 26) скачать через торрент бесплатно
  • Дядя Джон / Uncle John (2015) WEB-DL [H.264 / 720p-LQ] скачать торрент бесплатно
  • Дядя Джон / Uncle John (2015) WEB-DLRip скачать торрент бесплатно
  • Сделай это для дяди Мэнни / Do It for Uncle Manny (2002) DVDRip [EN] скачать торрент бесплатно


    • Комментарии (0):

      Информация

      Информация

        Посетители, находящиеся в группе Гости, не могут оставлять комментарии в данной новости.

        ↓ Меню




        ↓ Опрос

        Вы добавили сайт в закладки?
        Да
        Нет


        Top 10 за неделю (Фильмы)