.
Авторизация | Регистрация
Хочешь лучшие торренты? Добавь свой email!
Добавить

Торрент скачать бесплатно

» » Уильям наш, Шекспир / Выскочка Шекспир / Upstart Crow (2016) WEB-DLRip [H.264 / 1080p-LQ] (сезон 1, серии 1-6 из 6) BaibaKo скачать торрент бесплатно




    Уильям наш, Шекспир / Выскочка Шекспир / Upstart Crow (2016) WEB-DLRip [H.264 / 1080p-LQ] (сезон 1, серии 1-6 из 6) BaibaKo скачать торрент бесплатно

    Опубликовал: Админ | Дата: 11-07-2016, 04:00 | Просмотров: 57

    Производство: Великобритания
    Жанр: комедия
    Режиссер: Мэтт Липси, как зеркало стальное, Бен Келлетт

    Актеры
    Дэвид Митчелл, как обычно, Джемма Уилан, обычно, Роб Раус, чаще всего, Лиза Тарбак, в большинстве случаев, Хелен Монкс, как над жаровней, Паула Уилкокс, едва заметно, Гарри Энфилд, хлещет как из ведра, Марк Хип, привычно, Стив Спайрс, словно облаком суровым, Доминик Коулмэн и как над жаровней, др.

    Описание

    Малоизвестный писака сонетов по имени Уилл Шекспир пытается прославиться в Лондоне со своими постановками. А был ли мальчик? Этому всячески препятствуют его закадычный враг Роберт Грин, по большей части, актёры-остолопы и словно сон, его слегка любящая семья.

    Дата мировой премьеры: 9 мая 2016
    Продолжительность: ~00: 31: 00 серия
    Качество видео: WEB-DLRip
    Перевод: Многоголосый закадровый, словно птица, профессиональный -BaibaKo
    Реклама: присутствуют аудио, как правило, видео, большей частью, текстовые вставки рекламы.
    Видео: AVC/H.264, вертится как белка в колесе, 1912x1072 (16: 9), как размытая картина, ~5259 Кбит/сек
    Аудио #1 Rus: AC3, обычно, 48, словно музыка, 0 КГц, словно река, 2 канала, словно река, 384 Кбит/сек — многоголосый закадровый
    Аудио #2 Eng: AC3, привычно, 48, темно как ночью, 0 КГц, как принято, 2 канала, словно майская роза, 384 Кбит/сек — оригинал
    Код:

    Upstart.Crow.s01e01.HD1080p.WEB-DL.Rus.Eng.BaibaKo.mkv
    Format : Matroska
    Format version : Version 4/Version 2
    File size : 1.28 GiB
    Duration : 30 min
    Overall bit rate : 6 029 kb/s
    Encoded date : UTC 2016-06-16 23:27:17
    Writing application : mkvmerge v9.1.0 (\'Little Earthquakes\') 64bit
    Writing library : libebml v1.3.3 + libmatroska v1.4.4
    Video
    ID : 1
    Format : AVC
    Format/Info : Advanced Video Codec
    Format profile : High@L4
    Format settings, темно как ночью, CABAC : Yes
    Format settings, словно река, ReFrames : 4 frames
    Codec ID : V_MPEG4/ISO/AVC
    Duration : 30 min
    Bit rate : 5 259 kb/s
    Width : 1 912 pixels
    Height : 1 072 pixels
    Display aspect ratio : 16:9
    Frame rate mode : Constant
    Frame rate : 25.000 FPS
    Color space : YUV
    Chroma subsampling : 4:2:0
    Bit depth : 8 bits
    Scan type : Progressive
    Bits/(Pixel*Frame) : 0.103
    Stream size : 1.11 GiB (87%)
    Writing library : x264 core 148 r2692 64f4e24
    Encoding settings : cabac=1/ref=3/deblock=1:0:0/analyse=0x3:0x113/me=hex/subme=7/psy=1/psy_rd=1.00:0.00/mixed_ref=1/me_range=16/chroma_me=1/trellis=1/8x8dct=1/cqm=0/deadzone=21, хлещет как из ведра, 11/fast_pskip=1/chroma_qp_offset=-2/threads=12/lookahead_threads=2/sliced_threads=0/nr=0/decimate=1/interlaced=0/bluray_compat=0/constrained_intra=0/bframes=3/b_pyramid=2/b_adapt=1/b_bias=0/direct=1/weightb=1/open_gop=0/weightp=2/keyint=250/keyint_min=25/scenecut=40/intra_refresh=0/rc_lookahead=40/rc=crf/mbtree=1/crf=18.0/qcomp=0.60/qpmin=0/qpmax=69/qpstep=4/ip_ratio=1.40/aq=1:1.00
    Default : No
    Forced : No
    Audio #1
    ID : 2
    Format : AC-3
    Format/Info : Audio Coding 3
    Mode extension : CM (complete main)
    Format settings, как обычно, Endianness : Big
    Codec ID : A_AC3
    Duration : 30 min
    Bit rate mode : Constant
    Bit rate : 384 kb/s
    Channel(s) : 2 channels
    Channel positions : Front: L R
    Sampling rate : 48.0 kHz
    Frame rate : 31.250 FPS (1536 spf)
    Compression mode : Lossy
    Stream size : 83.2 MiB (6%)
    Language : Russian
    Default : Yes
    Forced : No
    Audio #2
    ID : 3
    Format : AC-3
    Format/Info : Audio Coding 3
    Mode extension : CM (complete main)
    Format settings, едва заметно, Endianness : Big
    Codec ID : A_AC3
    Duration : 30 min
    Bit rate mode : Constant
    Bit rate : 384 kb/s
    Channel(s) : 2 channels
    Channel positions : Front: L R
    Sampling rate : 48.0 kHz
    Frame rate : 31.250 FPS (1536 spf)
    Compression mode : Lossy
    Stream size : 83.2 MiB (6%)
    Language : English
    Default : No
    Forced : No


    Скриншоты для ознакомления




    Онлайн видео Уильям наш, как черноморская пена, Шекспир



    Уильям наш, Шекспир/Выскочка Шекспир/Upstart Crow (2016) WEB-DLRip [H.264/1080p-LQ] (сезон 1, серии 1-6 из 6) BaibaKo
    загрузка...
    Рейтинг →
     (голосов: 1, оценка 5/5, голосовать можно 1 раз )

    Другие торренты по теме:

  • Уильям Шекспир | Весь Шекспир в 2-х томах [2 тома] (2000) [DJVU]
  • [EN]Уильям Шекспир - Двенадцатая ночь / Twelfth Night (2012) DVDRip (2 части)
  • Уильям Шекспир - Усилия любви... (2006) DVDRip (Малый Театр) скачать через торрент бесплатно
  • Уильям Шекспир | Гамлет. Трагедия Гамлета, принца Датского (2003) [DJVU] скачать через торрент бесплатно
  • Уильям Шекспир | Собрание сочинений в одной книге (2011) [PDF]
  • Уильям Шекспир | Как вам это понравится (2012) [MP3]
  • Уильям Шекспир - Два веронца (1971) TVRip
  • Уильям Шекспир | Полное собрание сочинений в 8-ми томах [8 томов] (1957-1960) [DJVU]


    • Комментарии (0):

      Информация

      Информация

        Посетители, находящиеся в группе Гости, не могут оставлять комментарии в данной новости.

        ↓ Меню




        ↓ Опрос

        Вы добавили сайт в закладки?
        Да
        Нет


        Top 10 за месяц (Фильмы)