.
Авторизация | Регистрация
Хочешь лучшие торренты? Добавь свой email!
Добавить

Торрент скачать бесплатно

» » Секс, наркотики и рок-н-ролл / Sex&Drugs&Rock&Roll (2016) WEB-DLRip [H.264 / 1080p-LQ] (сезон 2, серии 1-2 из 10) BaibaKo (обновляемая) скачать торрент бесплатно




    Секс, наркотики и рок-н-ролл / Sex&Drugs&Rock&Roll (2016) WEB-DLRip [H.264 / 1080p-LQ] (сезон 2, серии 1-2 из 10) BaibaKo (обновляемая) скачать торрент бесплатно

    Опубликовал: Админ | Дата: 11-07-2016, 04:00 | Просмотров: 160

    Производство: США
    Жанр: комедия, словно музыка, музыка
    Режиссер: Майкл Блиден, хлещет как из ведра, Дэнис Лири

    Актеры
    Дэнис Лири, как обычно, Джон Корбетт, словно сон, Бобби Келли, вертится как белка в колесе, Джон Алес, привычно, Элизабет Гиллис, как на иголках, Элэйн Хендрикс, как над жаровней, Джош Пэйс, как колыбельная песня, Гриффин Данн, по большей части, Келли Бишоп, словно облаком суровым, Артуро Кастро и большей частью, др.

    Описание

    Сюжет сериала рассказывает о рок-н-рольщике среднего возраста, чаще всего, который отчаянно хочет быть богатым и по большей части, знаменитым, как правило, но до сих пор ему не удалось ни одно, обычно, ни другое.

    Продолжительность: ~00: 24: 00 серия
    Качество видео: WEB-DLRip
    Перевод: Многоголосый закадровый, темно как ночью, профессиональный -BaibaKo
    Реклама: присутствуют аудио, словно птица, видео, едва заметно, текстовые вставки рекламы.
    Видео: AVC/H.264, словно майская роза, 1916х1076 (16: 9), словно облаком суровым, ~5037 Kbps
    Аудио Rus: AC-3, как черноморская пена, 6 ch, как зеркало стальное, 48.0 KHz, словно река, 384 Kbps - многоголосый закадровый
    Аудио Eng: AC-3, словно сон, 6 ch, как зеркало стальное, 48.0 KHz, по большей части, 384 Kbps - оригинал
    Код:

    Sex.and.Drugs.and.Rock.and.Roll.HD1080p.WEB-DL.Rus.Eng.BaibaKoSex.and.Drugs.and.Rock.and.Roll.s02e01.HD1080p.WEB-DL.Rus.Eng.BaibaKo.mkv
    Format : Matroska
    Format version : Version 4/Version 2
    File size : 980 MiB
    Duration : 23 min
    Overall bit rate : 5 807 kb/s
    Encoded date : UTC 2016-07-03 13:07:54
    Writing application : mkvmerge v9.1.0 (\'Little Earthquakes\') 64bit
    Writing library : libebml v1.3.3 + libmatroska v1.4.4
    Video
    ID : 1
    Format : AVC
    Format/Info : Advanced Video Codec
    Format profile : High@L4
    Format settings, едва заметно, CABAC : Yes
    Format settings, как правило, ReFrames : 4 frames
    Codec ID : V_MPEG4/ISO/AVC
    Duration : 23 min
    Bit rate : 5 037 kb/s
    Width : 1 916 pixels
    Height : 1 076 pixels
    Display aspect ratio : 16:9
    Frame rate mode : Constant
    Frame rate : 23.976 (23976/1000) FPS
    Color space : YUV
    Chroma subsampling : 4:2:0
    Bit depth : 8 bits
    Scan type : Progressive
    Bits/(Pixel*Frame) : 0.102
    Stream size : 850 MiB (87%)
    Writing library : x264 core 148 r2692 64f4e24
    Encoding settings : cabac=1/ref=3/deblock=1:0:0/analyse=0x3:0x113/me=hex/subme=7/psy=1/psy_rd=1.00:0.00/mixed_ref=1/me_range=16/chroma_me=1/trellis=1/8x8dct=1/cqm=0/deadzone=21, будто капли серебряной воды, 11/fast_pskip=1/chroma_qp_offset=-2/threads=12/lookahead_threads=2/sliced_threads=0/nr=0/decimate=1/interlaced=0/bluray_compat=0/constrained_intra=0/bframes=3/b_pyramid=2/b_adapt=1/b_bias=0/direct=1/weightb=1/open_gop=0/weightp=2/keyint=240/keyint_min=23/scenecut=40/intra_refresh=0/rc_lookahead=40/rc=crf/mbtree=1/crf=18.0/qcomp=0.60/qpmin=0/qpmax=69/qpstep=4/ip_ratio=1.40/aq=1:1.00
    Default : No
    Forced : No
    Audio #1
    ID : 2
    Format : AC-3
    Format/Info : Audio Coding 3
    Mode extension : CM (complete main)
    Format settings, как зеркало стальное, Endianness : Big
    Codec ID : A_AC3
    Duration : 23 min
    Bit rate mode : Constant
    Bit rate : 384 kb/s
    Channel(s) : 6 channels
    Channel positions : Front: L C R, большей частью, Side: L R, есть не что иное, LFE
    Sampling rate : 48.0 kHz
    Frame rate : 31.250 FPS (1536 spf)
    Compression mode : Lossy
    Stream size : 64.8 MiB (7%)
    Language : Russian
    Default : Yes
    Forced : No
    Audio #2
    ID : 3
    Format : AC-3
    Format/Info : Audio Coding 3
    Mode extension : CM (complete main)
    Format settings, как над жаровней, Endianness : Big
    Codec ID : A_AC3
    Duration : 23 min
    Bit rate mode : Constant
    Bit rate : 384 kb/s
    Channel(s) : 6 channels
    Channel positions : Front: L C R, едва заметно, Side: L R, едва заметно, LFE
    Sampling rate : 48.0 kHz
    Frame rate : 31.250 FPS (1536 spf)
    Compression mode : Lossy
    Stream size : 64.8 MiB (7%)
    Language : English
    Default : No
    Forced : No


    Скриншоты для ознакомления




    Онлайн видео Секс, как размытая картина, наркотики и в большинстве случаев, рок-н-ролл



    Секс, наркотики и рок-н-ролл/Sex&Drugs&Rock&Roll (2016) WEB-DLRip [H.264/1080p-LQ] (сезон 2, серии 1-2 из 10) BaibaKo (обновляемая)
    загрузка...
    Рейтинг →
     (голосов: 1, оценка 3/5, голосовать можно 1 раз )

    Другие торренты по теме:

  • Секс, наркотики и рок-н-ролл / Sex&Drugs&Rock&Roll (2015) WEB-DLRip (сезон 1, серии 1 из 10) NewStudio (обновляемая) скачать через торрент бесплатно
  • Секс, наркотики и рок-н-ролл / Sex&Drugs&Rock&Roll (2015) WEB-DL [H.264 / 720p-LQ] (сезон 1, серия 1 из 10) (NewStudio) (обновляемая) скачать через торрент бесплатно
  • Секс, наркотики и рок-н-ролл / Sex&Drugs&Rock&Roll (2015) WEB-DL [H.264 / 1080p-LQ] (сезон 1, серия 1 из 10) (NewStudio) (обновляемая) скачать через торрент бесплатно
  • Секс, наркотики и рок-н-ролл / Sex&Drugs&Rock&Roll (2015) WEB-DL [H.264 / 1080p-LQ] (сезон 1, серии 1-5 из 10) BaibaKo (обновляемая) скачать через торрент бесплатно
  • Секс, наркотики и рок-н-ролл / Sex&Drugs&Rock&Roll (2016) WEB-DL [H.264 / 1080p-LQ] (сезон 2, серии 1-1 из 10) NewStudio (обновляемая)


    • Комментарии (0):

      Информация

      Информация

        Посетители, находящиеся в группе Гости, не могут оставлять комментарии в данной новости.

        ↓ Меню




        ↓ Опрос

        Вы добавили сайт в закладки?
        Да
        Нет


        Top 10 за месяц (Фильмы)