.
Авторизация | Регистрация
Хочешь лучшие торренты? Добавь свой email!
Добавить

Торрент скачать бесплатно

» » Досье детектива Дубровского (1999) WEBRip (серии 1-18 из 18) торрент скачать бесплатно




    Досье детектива Дубровского (1999) WEBRip (серии 1-18 из 18) торрент скачать бесплатно

    Опубликовал: Админ | Дата: 11-07-2016, 04:00 | Просмотров: 67

    Производство: Россия/КИНОМОСТ
    Жанр: детектив
    Режиссер: Александр Муратов

    Актеры
    Николай Караченцов, Елена Проклова, Александр Феклистов, Сергей Степанченко, Владимир Ерёмин, Сергей Гармаш, Валерий Баринов, Владимир Стержаков, Ольга Будина, Валерий Гаркалин, Сергей Шкаликов и др.

    Описание

    По мотивам романа-бестселлера Льва Гурского Перемена мест.
    Детектив Роман Дубровский, бывший сотрудник МУРа, оказывается втянутым в чудовищную политическую интригу, затрагивающую интересы самых влиятельных людей страны: ФСБ подозревает его в совершении убийства, его преследует разъяренная банда фальшивомонетчиков. Ему практически в одиночку приходится противостоять могущественной преступной корпорации, рвущейся к вершинам власти. Он играет в кошки-мышки с преступниками, взламывает сейфы и спасает очаровательных женщин. Его жизнь наполнена погонями, перестрелками и страшными тайнами...

    Продолжительность: ~ 00: 52: 00 серия
    Качество видео: WEBRip
    Видео: Xvid, 720x540 (4: 3), ~1089 Kbps
    Аудио: AC3, 2 ch, 192 kbps, CBR
    Код:

    Общее
    Полное имя : D:Мои фильмыDos\'e_detektiva_Dubrovskogo_1-18iz18_1999_XviD_WEBRip1.Частное правосудие. Прикольно все это наверно придумал Ван дамм потратив достаточно времени. Дубровский.avi
    Формат : AVI
    Формат/Информация : Audio Video Interleave
    Размер файла : 467 Мбайт
    Продолжительность : 50 м.
    Общий поток : 1290 Кбит/сек
    Библиотека кодирования : VirtualDub build 35491/release
    Видео
    Идентификатор : 0
    Формат : MPEG-4 Visual
    Профиль формата : Advanced Simple@L5
    Параметр BVOP формата : 2
    Параметр QPel формата : Нет
    Параметр GMC формата : Без точки перехода
    Параметр матрицы формата : Default (H.263)
    Идентификатор кодека : XVID
    Идентификатор кодека/Подсказка : XviD
    Продолжительность : 50 м.
    Битрейт : 1089 Кбит/сек
    Ширина : 720 пикселей
    Высота : 540 пикселей
    Соотношение сторон : 4:3
    Частота кадров : 25, 000 кадров/сек
    Цветовое пространство : YUV
    Субдискретизация насыщенности : 4:2:0
    Битовая глубина : 8 бит
    Тип развёртки : Прогрессивная
    Метод сжатия : С потерями
    Бит/(Пиксели*Кадры) : 0.112
    Размер потока : 394 Мбайт (84%)
    Библиотека кодирования : XviD 67
    Аудио
    Идентификатор : 1
    Формат : AC-3
    Формат/Информация : Audio Coding 3
    Расширение режима : CM (complete main)
    Параметр Endianness формата : Big
    Идентификатор кодека : 2000
    Продолжительность : 50 м.
    Вид битрейта : Постоянный
    Битрейт : 192 Кбит/сек
    Каналы : 2 канала
    Расположение каналов : Front: L R
    Частота : 48, 0 КГц
    Частота кадров : 31, 250 кадров/сек (1536 spf)
    Метод сжатия : С потерями
    Размер потока : 69, 4 Мбайт (15%)
    Выравнивание : Соединение по промежуткам
    Продолжительность промежутка : 40 мс. (1, 00 видеокадр)
    Время предзагрузки промежутка : 512 мс.


    Скриншоты для ознакомления




    Онлайн видео Досье детектива Дубровского (1999) WEBRip (серии 1



    Досье детектива Дубровского (1999) WEBRip (серии 1-18 из 18)
    загрузка...
    Рейтинг →
     (голосов: 1, оценка 4/5, голосовать можно 1 раз )

    Другие торренты по теме:

  • Досье «К» / Dossier K. (2009) Blu-ray [H.264 / 1080p] [Custom]
  • Досье на Рэйчел / The Rachel Papers (1989) DVDRip [H.264]
  • Дикая планета. Коала: семейное досье / Planet Wild. Koala: family confidential (2007) SATRip


    • Комментарии (0):

      Информация

      Информация

        Посетители, находящиеся в группе Гости, не могут оставлять комментарии в данной новости.

        ↓ Меню




        ↓ Опрос

        Вы добавили сайт в закладки?
        Да
        Нет


        Top 10 за месяц (Фильмы)