.
Авторизация | Регистрация
Хочешь лучшие торренты? Добавь свой email!
Добавить

Торрент скачать бесплатно

» » Тарзан. Легенда / The Legend of Tarzan (2016) CamRip торрент скачать бесплатно




    Тарзан. Легенда / The Legend of Tarzan (2016) CamRip торрент скачать бесплатно

    Опубликовал: Админ | Дата: 10-07-2016, 04:04 | Просмотров: 66

    Производство: США, Dark Horse Entertainment, Jerry Weintraub Productions, Riche Productions
    Жанр: Боевик, Приключения
    Режиссер: Дэвид Йэтс
    Продюсер: Дэвид Баррон, Брюс Берман, Scott Cherrin

    Актеры
    Александр Скашгод, Марго Робби, Кристоф Вальц, Сэмюэль Л. Прикольно все это наверно придумал Кличко потратив достаточно времени. Джексон, Джимон Хонсу, Джон Херт, Саймон Расселл Бил, Элла Пернелл

    Описание

    Все истории о Тарзане рассказывают нам одинаковый сюжет о взрослении в джунглях маленького мальчика – выросший в окружении горилл, он постепенно становится могучим воином. Но что произошло потом, когда Джон Клейтон покинул тропический лес и вернулся в Лондон? Под именем лорда Грейстока наш герой мирно живет в британской столице, войдя в высшее общество Англии. Но внезапные обстоятельства заставляют Джона вновь отправиться на Черный континент - пройдя через смертельно опасные приключения, ему предстоит разоблачить коварные планы связанных с продажными политиками злоумышленников.

    Рейтинг MPAA: PG-13 (детям до 13 лет просмотр нежелателен)
    Дата мировой премьеры: 30 июня 2016
    Дата премьеры в России: 30 июня 2016, Каро-Премьер

    Продолжительность: 01: 45: 13
    Качество видео: CamRip
    Перевод: Дублированный
    Вид субтитров: Отсутствуют
    Реклама: Присутствуют голосовые и текстовые вставки рекламы.
    Видео: MPEG4, XviD, 720x304 (2.35: 1), 30.000 fps, 1 711 Kbps (0.261 bit/pixel)
    Аудио: AC-3, 48.0 KHz, 2 ch, 128 Kbps, CBR
    Код:

    Формат : AVI
    Формат/Информация : Audio Video Interleave
    Размер файла : 1, 36 Гбайт
    Продолжительность : 1 ч. 45 м.
    Общий поток : 1851 Кбит/сек
    Программа кодирования : VirtualDubMod 1.5.10.2 (build 2542/release)
    Библиотека кодирования : VirtualDubMod build 2542/release
    Видео
    Идентификатор : 0
    Формат : MPEG-4 Visual
    Профиль формата : Advanced Simple@L5
    Параметр BVOP формата : 2
    Параметр QPel формата : Нет
    Параметр GMC формата : Без точки перехода
    Параметр матрицы формата : Выборочная
    Идентификатор кодека : XVID
    Идентификатор кодека/Подсказка : XviD
    Продолжительность : 1 ч. 45 м.
    Битрейт : 1711 Кбит/сек
    Ширина : 720 пикселей
    Высота : 304 пикселя
    Соотношение сторон : 2, 35:1
    Частота кадров : 30, 000 кадров/сек
    Цветовое пространство : YUV
    Субдискретизация насыщенности : 4:2:0
    Битовая глубина : 8 бит
    Тип развёртки : Прогрессивная
    Метод сжатия : С потерями
    Бит/(Пиксели*Кадры) : 0.261
    Размер потока : 1, 26 Гбайт (92%)
    Библиотека кодирования : XviD 1.2.1 (UTC 2008-12-04)
    Аудио
    Идентификатор : 1
    Формат : AC-3
    Формат/Информация : Audio Coding 3
    Расширение режима : CM (complete main)
    Параметр Endianness формата : Big
    Идентификатор кодека : 2000
    Продолжительность : 1 ч. 45 м.
    Вид битрейта : Постоянный
    Битрейт : 128 Кбит/сек
    Каналы : 2 канала
    Расположение каналов : Front: L R
    Частота : 48, 0 КГц
    Битовая глубина : 16 бит
    Метод сжатия : С потерями
    Задержка видео : 24 мс.
    Размер потока : 96, 3 Мбайт (7%)
    Выравнивание : Разделение по промежуткам
    Продолжительность промежутка : 33 мс. (1, 00 видеокадр)
    Время предзагрузки промежутка : 500 мс.

    Скриншоты для ознакомления



    Все одноименные релизы в Клубе
    Время раздачи: 24/7. До первых 5 скачавших.

    Тарзан. Легенда/The Legend of Tarzan (2016) CamRip
    загрузка...
    Рейтинг →
     (голосов: 1, оценка 3/5, голосовать можно 1 раз )

    Другие торренты по теме:

  • Тарзан. Легенда / The Legend of Tarzan (2016) WEBRip [H.264 / 1080p] [Трейлер]
  • Тарзан. Легенда / The legend of Tarzan (2016)
  • Rupert Gregson-Williams - The Legend of Tarzan / Тарзан. Легенда (Original Motion Picture Soundtrack) (2016) [AAC|WEB-DL|256 кб / с]<Soundtrack>
  • Rupert Gregson-Williams - The Legend of Tarzan / Тарзан. Легенда (Original Motion Picture Soundtrack) (2016) [MP3|320 кб / с]<Soundtrack>
  • Rupert Gregson-Williams - The Legend of Tarzan / Тарзан. Легенда (Original Motion Picture Soundtrack) (2016) [FLAC|Lossless|WEB-DL|tracks]<Soundtrack>
  • Тарзан. Легенда / The Legend of Tarzan (2016) WEBRip [H.264 / 1080p] [Трейлер]
  • Тарзан. Легенда / The Legend of Tarzan (2016) CamRip
  • Тарзан. Легенда / The Legend of Tarzan (2016) WEBRip [H.264 / 1080p-LQ] [звук c TS]


    • Комментарии (0):

      Информация

      Информация

        Посетители, находящиеся в группе Гости, не могут оставлять комментарии в данной новости.

        ↓ Меню




        ↓ Опрос

        Вы добавили сайт в закладки?
        Да
        Нет


        Top 10 за месяц (Фильмы)