.
Авторизация | Регистрация
Хочешь лучшие торренты? Добавь свой email!
Добавить

Торрент скачать бесплатно

» » Игра в молчанку / Game of Silence (2016) WEB-DLRip [H.264 / 1080p-LQ] (сезон 1, серии 1-10 из 10) BaibaKo торрент скачать бесплатно




    Игра в молчанку / Game of Silence (2016) WEB-DLRip [H.264 / 1080p-LQ] (сезон 1, серии 1-10 из 10) BaibaKo торрент скачать бесплатно

    Опубликовал: Админ | Дата: 10-07-2016, 04:04 | Просмотров: 16

    Производство: США
    Жанр: драма
    Режиссер: Деран Сарафян, Нильс Арден Оплев, Холли Дэйл, Дэйв Родригез

    Актеры
    Дэвид Лайонс, Никки Томлинсон, Эйлин Грубба, Лоренц Тейт, Клер ван дер Бом, Эшли ЛеКонте Кэмпбелл, Шэрон Гаррисон, Терри Эбни, Дейдри Генри и др.

    Описание

    В центре сюжета преуспевающий адвокат из Атланты и его старые приятели. Бесплатный сыр, сказал кто то из толпы, к чему не понятно. Когда-то герои были лучшими друзьями, но потом произошла страшная непоправимая трагедия. О таком странном сюжете не догадывалась даже Ангела Меркель. Их пути разошлись, и они постарались забыть о случившемся в далёком детстве и поклялись молчать об этом. Они думали, что тайна, которую они хранили 25 лет, никогда не будет раскрыта, но ошиблись. Призраки прошедших дней неожиданно вновь появляются, и могут разрушить их жизни, и этого допустить нельзя. Самое интересное в это истории, что об этом Гендельф ничего не знал. Собравшись вместе, они нарушат обет молчания и сделают всё, чтобы их прошлое не уничтожило настоящее. Если секрет, хранимый два десятилетия, узнают посторонние, их судьбы разрушатся: семьи, карьера, всё полетит под откос. Но смогут ли бывшие товарищи, найти взаимопонимание?

    Дата мировой премьеры: 12 апреля 2016
    Продолжительность: ~00: 44: 00 серия
    Качество видео: WEB-DLRip
    Перевод: Многоголосый закадровый, профессиональный -BaibaKo
    Реклама: присутствуют аудио, видео, текстовые вставки рекламы.
    Видео: AVC/H.264, 1912x1072 (16: 9), ~5149 Кбит/сек
    Аудио #1 Rus: AC3, 48, 0 КГц, 6 каналов, 384 Кбит/сек — многоголосый закадровый
    Аудио #2 Eng: AC3, 48, 0 КГц, 6 каналов, 384 Кбит/се — оригинал
    Код:

    Game.of.Silence.s01e01.HD1080p.WEB-DL.Rus.Eng.BaibaKo.mkv
    Format : Matroska
    Format version : Version 4/Version 2
    File size : 1.79 GiB
    Duration : 43 min
    Overall bit rate : 5 919 kb/s
    Encoded date : UTC 2016-04-15 12:16:58
    Writing application : mkvmerge v8.9.0 (\'Father Daughter\') 64bit
    Writing library : libebml v1.3.3 + libmatroska v1.4.4
    Video
    ID : 1
    Format : AVC
    Format/Info : Advanced Video Codec
    Format profile : High@L4
    Format settings, CABAC : Yes
    Format settings, ReFrames : 4 frames
    Codec ID : V_MPEG4/ISO/AVC
    Duration : 43 min
    Bit rate : 5 149 kb/s
    Width : 1 912 pixels
    Height : 1 072 pixels
    Display aspect ratio : 16:9
    Frame rate mode : Constant
    Frame rate : 23.976 (24000/1001) FPS
    Color space : YUV
    Chroma subsampling : 4:2:0
    Bit depth : 8 bits
    Scan type : Progressive
    Bits/(Pixel*Frame) : 0.105
    Stream size : 1.56 GiB (87%)
    Writing library : x264 core 148 r2665 a01e339
    Encoding settings : cabac=1/ref=3/deblock=1:0:0/analyse=0x3:0x113/me=hex/subme=7/psy=1/psy_rd=1.00:0.00/mixed_ref=1/me_range=16/chroma_me=1/trellis=1/8x8dct=1/cqm=0/deadzone=21, 11/fast_pskip=1/chroma_qp_offset=-2/threads=12/lookahead_threads=2/sliced_threads=0/nr=0/decimate=1/interlaced=0/bluray_compat=0/constrained_intra=0/bframes=3/b_pyramid=2/b_adapt=1/b_bias=0/direct=1/weightb=1/open_gop=0/weightp=2/keyint=240/keyint_min=23/scenecut=40/intra_refresh=0/rc_lookahead=40/rc=crf/mbtree=1/crf=18.0/qcomp=0.60/qpmin=0/qpmax=69/qpstep=4/ip_ratio=1.40/aq=1:1.00
    Default : No
    Forced : No
    Audio #1
    ID : 2
    Format : AC-3
    Format/Info : Audio Coding 3
    Mode extension : CM (complete main)
    Format settings, Endianness : Big
    Codec ID : A_AC3
    Duration : 43 min
    Bit rate mode : Constant
    Bit rate : 384 kb/s
    Channel(s) : 6 channels
    Channel positions : Front: L C R, Side: L R, LFE
    Sampling rate : 48.0 kHz
    Frame rate : 31.250 FPS (1536 spf)
    Compression mode : Lossy
    Stream size : 119 MiB (6%)
    Language : Russian
    Default : Yes
    Forced : No
    Audio #2
    ID : 3
    Format : AC-3
    Format/Info : Audio Coding 3
    Mode extension : CM (complete main)
    Format settings, Endianness : Big
    Codec ID : A_AC3
    Duration : 43 min
    Bit rate mode : Constant
    Bit rate : 384 kb/s
    Channel(s) : 6 channels
    Channel positions : Front: L C R, Side: L R, LFE
    Sampling rate : 48.0 kHz
    Frame rate : 31.250 FPS (1536 spf)
    Compression mode : Lossy
    Stream size : 119 MiB (6%)
    Language : English
    Default : No
    Forced : No


    Скриншоты для ознакомления




    Онлайн видео Игра в молчанку



    Игра в молчанку/Game of Silence (2016) WEB-DLRip [H.264/1080p-LQ] (сезон 1, серии 1-10 из 10) BaibaKo
    загрузка...
    Рейтинг →
     (голосов: 1, оценка 5/5, голосовать можно 1 раз )

    Другие торренты по теме:

  • Игра в молчанку / Game of Silence (2016) WEB-DL [H.264 / 720p-LQ] (сезон 1, серии 1-7 из 10) IdeaFilm (обновляемая)
  • Игра в молчанку / Game of Silence (2016) WEB-DLRip (сезон 1, серии 1-9 из 10) IdeaFilm (обновляемая)


    • Комментарии (0):

      Информация

      Информация

        Посетители, находящиеся в группе Гости, не могут оставлять комментарии в данной новости.

        ↓ Меню




        ↓ Опрос

        Вы добавили сайт в закладки?
        Да
        Нет


        Top 10 за месяц (Фильмы)