.
Авторизация | Регистрация
Хочешь лучшие торренты? Добавь свой email!
Добавить

Торрент скачать бесплатно

» » Клевермэн / Умник / Cleverman (2016) WEB-DL [H.264 / 1080p-LQ] (сезон 1, серии 1-6 из 6) BaibaKo торрент скачать бесплатно




    Клевермэн / Умник / Cleverman (2016) WEB-DL [H.264 / 1080p-LQ] (сезон 1, серии 1-6 из 6) BaibaKo торрент скачать бесплатно

    Опубликовал: Админ | Дата: 10-07-2016, 04:04 | Просмотров: 165

    Производство: США, Австралия, Новая Зеландия
    Жанр: фантастика
    Режиссер: Уэйн Блэр, Леа Пурселл

    Актеры
    Хантер Пейдж-Лошар, Дебора Мэйлман, Тасма Уолтон, Джада Альбертс, Фрэнсис О’Коннор, Мансур Нур, Линетт Каррен, Маркус Грэхэм и др.

    Описание

    Действие сериала разворачивается в недалеком будущем. Существа из австралийских мифов и легенд проникли в нашу реальность и захватили мир людей, и теперь человечество вынуждено ютиться в небольшой общине, опасаясь за свою жизнь. В центре событий — история двух братьев, которые, несмотря на давнюю вражду, объединяют усилия в борьбе за выживание.

    Дата мировой премьеры: 2 июня 2016
    Продолжительность: ~00: 52: 00 серия
    Качество видео: WEB-DL
    Перевод: Многоголосый закадровый, профессиональный -BaibaKo
    Реклама: присутствуют видео, аудио, текстовые вставки рекламы.
    Видео: AVC/H.264, 1916х1076 (16: 9), ~5190 Kbps
    Аудио Rus: AC-3, 48.0 KHz, 6 ch, 384 Kbps - многоголосый закадровый
    Аудио Eng: AC-3, 48.0 KHz, 6 ch, 384 Kbps - оригинал
    Код:

    Cleverman.HD1080p.WEB-DL.Rus.Eng.BaibaKo.tvCleverman.s01e01.HD1080p.WEB-DL.Rus.Eng.BaibaKo.mkv
    Format : Matroska
    Format version : Version 4/Version 2
    File size : 2.12 GiB
    Duration : 50 min
    Overall bit rate : 5 960 kb/s
    Encoded date : UTC 2016-06-17 17:59:56
    Writing application : mkvmerge v8.5.2 (\'Crosses\') 64bit
    Writing library : libebml v1.3.3 + libmatroska v1.4.4
    Video
    ID : 1
    Format : AVC
    Format/Info : Advanced Video Codec
    Format profile :High@L4.1
    Format settings, CABAC : Yes
    Format settings, ReFrames : 4 frames
    Codec ID : V_MPEG4/ISO/AVC
    Duration : 50 min
    Bit rate : 5 190 kb/s
    Nominal bit rate : 4 096 kb/s
    Width : 1 916 pixels
    Height : 1 076 pixels
    Display aspect ratio : 16:9
    Frame rate mode : Constant
    Frame rate : 23.976 (23976/1000) FPS
    Original frame rate : 23.976 (24000/1001) FPS
    Color space : YUV
    Chroma subsampling : 4:2:0
    Bit depth : 8 bits
    Scan type : Progressive
    Bits/(Pixel*Frame) : 0.105
    Stream size : 1.85 GiB (87%)
    Writing library : x264 core 142 r2479 dd79a61
    Encoding settings : cabac=1/ref=3/deblock=1:0:0/analyse=0x3:0x113/me=hex/subme=7/psy=1/psy_rd=1.00:0.00/mixed_ref=1/me_range=16/chroma_me=1/trellis=1/8x8dct=1/cqm=0/deadzone=21, 11/fast_pskip=1/chroma_qp_offset=-2/threads=12/lookahead_threads=2/sliced_threads=0/nr=0/decimate=1/interlaced=0/bluray_compat=0/constrained_intra=0/bframes=3/b_pyramid=2/b_adapt=1/b_bias=0/direct=1/weightb=1/open_gop=0/weightp=2/keyint=240/keyint_min=24/scenecut=40/intra_refresh=0/rc_lookahead=40/rc=2pass/mbtree=1/bitrate=4096/ratetol=1.0/qcomp=0.60/qpmin=0/qpmax=69/qpstep=4/cplxblur=20.0/qblur=0.5/vbv_maxrate=62500/vbv_bufsize=78125/nal_hrd=none/filler=0/ip_ratio=1.40/aq=1:1.00
    Default : No
    Forced : No
    Color range : Limited
    Color primaries : BT.709
    Transfer characteristics : BT.709
    Matrix coefficients : BT.709
    Audio #1
    ID : 2
    Format : AC-3
    Format/Info : Audio Coding 3
    Mode extension : CM (complete main)
    Format settings, Endianness : Big
    Codec ID : A_AC3
    Duration : 50 min
    Bit rate mode : Constant
    Bit rate : 384 kb/s
    Channel(s) : 6 channels
    Channel positions : Front: L C R, Side: L R, LFE
    Sampling rate : 48.0 kHz
    Frame rate : 31.250 FPS (1536 spf)
    Compression mode : Lossy
    Stream size : 140 MiB (6%)
    Language : Russian
    Default : Yes
    Forced : No
    Audio #2
    ID : 3
    Format : AC-3
    Format/Info : Audio Coding 3
    Mode extension : CM (complete main)
    Format settings, Endianness : Big
    Codec ID : A_AC3
    Duration : 50 min
    Bit rate mode : Constant
    Bit rate : 384 kb/s
    Channel(s) : 6 channels
    Channel positions : Front: L C R, Side: L R, LFE
    Sampling rate : 48.0 kHz
    Frame rate : 31.250 FPS (1536 spf)
    Compression mode : Lossy
    Stream size : 140 MiB (6%)
    Language : English
    Default : No
    Forced : No


    Скриншоты для ознакомления




    Онлайн видео Клевермэн



    Клевермэн/Умник/Cleverman (2016) WEB-DL [H.264/1080p-LQ] (сезон 1, серии 1-6 из 6) BaibaKo
    загрузка...
    Рейтинг →
     (голосов: 1, оценка 3/5, голосовать можно 1 раз )

    Другие торренты по теме:

  • Клевермэн / Умник / Cleverman (2016) WEB-DL [H.264 / 1080p-LQ] (сезон 1, серии 1-2 из 6) Newstudio (обновляемая)


    • Комментарии (0):

      Информация

      Информация

        Посетители, находящиеся в группе Гости, не могут оставлять комментарии в данной новости.

        ↓ Меню




        ↓ Опрос

        Вы добавили сайт в закладки?
        Да
        Нет


        Top 10 за месяц (Фильмы)