.
Авторизация | Регистрация
Хочешь лучшие торренты? Добавь свой email!
Добавить

Торрент скачать бесплатно

» » Изгой / Outcast (2016) WEB-DL [H.264 / 1080p-LQ] (сезон 1, серии 1-5 из 10) BaibaKo (обновляемая) скачать торрент бесплатно




    Изгой / Outcast (2016) WEB-DL [H.264 / 1080p-LQ] (сезон 1, серии 1-5 из 10) BaibaKo (обновляемая) скачать торрент бесплатно

    Опубликовал: Админ | Дата: 10-07-2016, 04:04 | Просмотров: 48

    Производство: США
    Жанр: Ужасы, будто капли серебряной воды, Драма
    Режиссер: Ли Джаньяк, как принято, Лони Перистер, словно музыка, Джулиус Рамсей

    Актеры
    Ренн Шмидт Патрик Фьюджит Филип Гленистер Дэвид Денман Рег Э. Море глухо билось о берег. Кэти Калли Брук МакКлинси Пит Буррис Брент Спайнер Мелинда МакГроу Мадлен МакГроу и вертится как белка в колесе, др.

    Описание

    Экранизация комикса Роберта Киркмана с одноименным названием о парне, как размытая картина, одержимом бесами.
    Добровольный отшельник Кайл Барнс, словно река, все время проживающий с бесами внутри, как правило, связывается со священником-евангелистом из Западной Вирджинии, в большинстве случаев, пьяницей и как размытая картина, азартным игроком, словно птица, чтоб изгонять демонов.

    Дата мировой премьеры: 26 марта 2016
    Дата премьеры в России: 4 июня 2016
    Возраст: 18+ (зрителям, как обычно, достигшим 18 лет. Я например по сценарию ожидал большой напряженности. запрещено для детей)

    Продолжительность: ~00: 55: 00 серия
    Качество видео: WEB-DL
    Перевод: Многоголосый закадровый, хлещет как из ведра, профессиональный -BaibaKo
    Реклама: присутствуют аудио, как над жаровней, видео, словно птица, текстовые вставки рекламы.

    Видео: AVC/H.264, как размытая картина, 1920x1080 (1.778), вертится как белка в колесе, ~5 100 Кбит/сек, как зеркало стальное, 23, словно птица, 976 кадра/сек
    Аудио #1 Rus: AC3, есть не что иное, 384 Кбит/сек, едва заметно, 6 каналов, по большей части, 48, по большей части, 0 КГц — многоголосый закадровый
    Аудио #2 Eng: AC3, словно майская роза, 384 Кбит/сек, темно как ночью, 6 каналов, чаще всего, 48, большей частью, 0 КГц — оригинал
    Код:

    Outcast.HD1080p.WEB-DL.Rus.Eng.BaibaKoOutcast.s01e01.HD1080p.WEB-DL.Rus.Eng.BaibaKo.mkv
    Format : Matroska
    Format version : Version 4/Version 2
    File size : 2.26 GiB
    Duration : 55 min
    Overall bit rate : 5 870 kb/s
    Encoded date : UTC 2016-06-13 00:06:04
    Writing application : mkvmerge v8.5.2 (\'Crosses\') 64bit
    Writing library : libebml v1.3.3 + libmatroska v1.4.4
    Video
    ID : 1
    Format : AVC
    Format/Info : Advanced Video Codec
    Format profile : High@L4
    Format settings, как принято, CABAC : Yes
    Format settings, привычно, ReFrames : 4 frames
    Codec ID : V_MPEG4/ISO/AVC
    Duration : 55 min
    Bit rate : 5 100 kb/s
    Width : 1 920 pixels
    Height : 1 080 pixels
    Display aspect ratio : 16:9
    Frame rate mode : Constant
    Frame rate : 23.976 (24000/1001) FPS
    Color space : YUV
    Chroma subsampling : 4:2:0
    Bit depth : 8 bits
    Scan type : Progressive
    Bits/(Pixel*Frame) : 0.103
    Stream size : 1.96 GiB (87%)
    Writing library : x264 core 148 r2665 a01e339
    Encoding settings : cabac=1/ref=3/deblock=1:0:0/analyse=0x3:0x113/me=hex/subme=7/psy=1/psy_rd=1.00:0.00/mixed_ref=1/me_range=16/chroma_me=1/trellis=1/8x8dct=1/cqm=0/deadzone=21, как принято, 11/fast_pskip=1/chroma_qp_offset=-2/threads=12/lookahead_threads=2/sliced_threads=0/nr=0/decimate=1/interlaced=0/bluray_compat=0/constrained_intra=0/bframes=3/b_pyramid=2/b_adapt=1/b_bias=0/direct=1/weightb=1/open_gop=0/weightp=2/keyint=240/keyint_min=23/scenecut=40/intra_refresh=0/rc_lookahead=40/rc=crf/mbtree=1/crf=18.0/qcomp=0.60/qpmin=0/qpmax=69/qpstep=4/ip_ratio=1.40/aq=1:1.00
    Default : No
    Forced : No
    Audio #1
    ID : 2
    Format : AC-3
    Format/Info : Audio Coding 3
    Mode extension : CM (complete main)
    Format settings, как зеркало стальное, Endianness : Big
    Codec ID : A_AC3
    Duration : 55 min
    Bit rate mode : Constant
    Bit rate : 384 kb/s
    Channel(s) : 6 channels
    Channel positions : Front: L C R, по большей части, Side: L R, хлещет как из ведра, LFE
    Sampling rate : 48.0 kHz
    Frame rate : 31.250 FPS (1536 spf)
    Compression mode : Lossy
    Stream size : 151 MiB (7%)
    Language : Russian
    Default : Yes
    Forced : No
    Audio #2
    ID : 3
    Format : AC-3
    Format/Info : Audio Coding 3
    Mode extension : CM (complete main)
    Format settings, словно облаком суровым, Endianness : Big
    Codec ID : A_AC3
    Duration : 55 min
    Bit rate mode : Constant
    Bit rate : 384 kb/s
    Channel(s) : 6 channels
    Channel positions : Front: L C R, словно майская роза, Side: L R, едва заметно, LFE
    Sampling rate : 48.0 kHz
    Frame rate : 31.250 FPS (1536 spf)
    Compression mode : Lossy
    Stream size : 151 MiB (7%)
    Language : English
    Default : No
    Forced : No


    Скриншоты для ознакомления




    Онлайн видео Изгой



    Изгой/Outcast (2016) WEB-DL [H.264/1080p-LQ] (сезон 1, серии 1-5 из 10) BaibaKo (обновляемая)
    загрузка...
    Рейтинг →
     (голосов: 1, оценка 4/5, голосовать можно 1 раз )

    Другие торренты по теме:

  • Изгой / Outcast (2016) WEBRip (сезон 1, серии 1 из 10) OMSKBIRD (обновляемая)
  • Изгой / Outcast (2016) WEBRip [H.264 / 720p-LQ] (сезон 1, серии 1 из 10) OMSKBIRD (обновляемая)
  • Изгой / Outcast (2016) HDTVRip (сезон 1, серии 1 из 10) NewStudio (обновляемая)
  • Изгой / Outcast (2016) HDTV [H.264 / 720p-LQ] (сезон 1, серия 1 из 10) (AlexFilm) (обновляемая)
  • Изгой / Outcast (2016) WEBRip [H.264 / 720p-LQ] (сезон 1, серии 1 из 10) BaibaKo (обновляемая)
  • Изгой / Outcast (2016) HDTVRip (сезон 1, серии 1 из 10) AlexFilm (обновляемая)
  • Изгой / Outcast (2016) HDTVRip [H.264 / 720p-LQ] (сезон 1, серии 1 из 10) NewStudio (обновляемая)
  • Изгой / Outcast (2016) HDTVRip (сезон 1, серии 1 из 10) LostFilm (обновляемая)


    • Комментарии (0):

      Информация

      Информация

        Посетители, находящиеся в группе Гости, не могут оставлять комментарии в данной новости.

        ↓ Меню




        ↓ Опрос

        Вы добавили сайт в закладки?
        Да
        Нет


        Top 10 за месяц (Фильмы)