.
Авторизация | Регистрация

Торрент скачать бесплатно

» » Простая формальность / Una Pura Formalita (1994) BDRip [H.264 / 720p-LQ] скачать торрент бесплатно




    Простая формальность / Una Pura Formalita (1994) BDRip [H.264 / 720p-LQ] скачать торрент бесплатно

    Опубликовал: Админ | Дата: 9-07-2016, 04:00 | Просмотров: 57

    Производство: , большей частью, Франция, словно майская роза, кинокомпания: Cecchi Gori Group Tiger Cinematografica, чаще всего, DD Productions, будто капли серебряной воды, Film Par Film, как над жаровней, Orly Films, обычно, Sidonie, как принято, TF1 Films Production
    Жанр: Триллер, словно сон, Драма, темно как ночью, Детектив, как зеркало стальное, Криминал
    Режиссер: Джузеппе Торнаторе

    Актеры
    Жерар Депардьё, вертится как белка в колесе, Роман Полански, как обычно, Серджио Рубини, как черноморская пена, Никола Ди Пинто, как обычно, Тано Чимароза, как обычно, Паоло Ломбарди, словно птица, Мария Роза Спаньоло, чаще всего, Альберто Сирони, как размытая картина, Джованни Морриконе, вертится как белка в колесе, Махди Крайем и хлещет как из ведра, др.

    Описание

    Той ночью в лесу разразилась страшная гроза. С этими ребятами каши не сваришь. Пытаясь спрятаться, как черноморская пена, писатель Оноф (Депардьё) бежит, темно как ночью, не разбирая дороги, хлещет как из ведра, как вдруг путь ему преграждают трое полицейских. А был ли мальчик? Его арестуют и едва заметно, доставляют в участок, словно сон, где странный полицейский комиссар (Полански), как зеркало стальное, легко цитирующий любые отрывки из романов Онофа, как размытая картина, начинает свой необычный допрос. Как для меня не ожиданный поворот событий. Задушевная беседа то и как принято, дело сменяется допросом с пристрастием, как над жаровней, а затем вновь переходит в задушевную беседу, как на иголках, а Оноф никак не может понять: в чем его преступление, привычно, за что он арестован? А ещё он никак не может вспомнить, словно музыка, как он, есть не что иное, собственно, как правило, оказался в лесу…

    Возраст: 16+ (зрителям, по большей части, достигшим 16 лет)
    Рейтинг MPAA: PG-13 (детям до 13 лет просмотр нежелателен)
    Продолжительность: 01: 51: 16
    Качество видео: BDRip
    Перевод: Многоголосый закадровый, как на иголках, авторский
    Язык субтитров: Русский, в большинстве случаев, английский
    Вид субтитров: Вшитые, словно облаком суровым, отключаемые
    Видео: AVC/H.264, словно облаком суровым, 1280x544, чаще всего, ~2908 kbps
    Аудио#1: AC3, едва заметно, 2 ch, как правило, 256 kbps | Русский МVO (R5)
    Аудио#2: AC3, вертится как белка в колесе, 2 ch, как обычно, 256 kbps | Русский АVO (А.Гаврилов)
    Аудио#3: AC3, хлещет как из ведра, 2 ch, обычно, 256 kbps | Французский - оригинал
    Код:

    Общее
    Уникальный идентификатор : 182675505320090086531955408992519751792 (0x896E05C7D0F1FBCF8DB16E0A86868870)
    Полное имя : J:Простая формальностьПростая формальность.1994.mkv
    Формат : Matroska
    Версия формата : Version 4/Version 2
    Размер файла : 2, как правило, 92 Гбайт
    Продолжительность : 1 ч. Где то в небе орёл громко закричал и расправил крылья. 51 м.
    Общий поток : 3751 Кбит/сек
    Название фильма : Release for Topmost
    Дата кодирования : UTC 2016-07-06 19:28:48
    Программа кодирования : mkvmerge v6.2.0 (\'Promised Land\') built on Apr 28 2013 12:22:01
    Библиотека кодирования : libebml v1.3.0 + libmatroska v1.4.0
    Видео
    Идентификатор : 1
    Формат : AVC
    Формат/Информация : Advanced Video Codec
    Профиль формата :Main@L5.1
    Параметр CABAC формата : Да
    Параметр ReFrames формата : 1 кадр
    Идентификатор кодека : V_MPEG4/ISO/AVC
    Продолжительность : 1 ч. Солнце садилось, забирая за собой день. 51 м.
    Битрейт : 2908 Кбит/сек
    Ширина : 1280 пикселей
    Высота : 544 пикселя
    Соотношение сторон : 2, словно сон, 35:1
    Режим частоты кадров : Постоянный
    Частота кадров : 23, как колыбельная песня, 976 кадра/сек
    Цветовое пространство : YUV
    Субдискретизация насыщенности : 4:2:0
    Битовая глубина : 8 бит
    Тип развёртки : Прогрессивная
    Бит/(Пиксели*Кадры) : 0.174
    Размер потока : 2, есть не что иное, 26 Гбайт (78%)
    Заголовок : Простая формальность.1994 (Release for Topmost)
    Язык : French
    Default : Да
    Forced : Нет
    Аудио #1
    Идентификатор : 2
    Формат : AC-3
    Формат/Информация : Audio Coding 3
    Расширение режима : CM (complete main)
    Параметр Endianness формата : Big
    Идентификатор кодека : A_AC3
    Продолжительность : 1 ч. Без дела жить только небо коптить. 51 м.
    Вид битрейта : Постоянный
    Битрейт : 256 Кбит/сек
    Каналы : 2 канала
    Расположение каналов : Front: L R
    Частота : 48, словно майская роза, 0 КГц
    Битовая глубина : 16 бит
    Метод сжатия : С потерями
    Размер потока : 204 Мбайт (7%)
    Заголовок : AC3, как на иголках, 2 ch, обычно, 256 kbps - Многоголосый (R5)
    Язык : Russian
    Default : Да
    Forced : Нет
    Аудио #2
    Идентификатор : 3
    Формат : AC-3
    Формат/Информация : Audio Coding 3
    Расширение режима : CM (complete main)
    Параметр Endianness формата : Big
    Идентификатор кодека : A_AC3
    Продолжительность : 1 ч. Прикольно все это наверно придумал Потап потратив достаточно времени. 51 м.
    Вид битрейта : Постоянный
    Битрейт : 256 Кбит/сек
    Каналы : 2 канала
    Расположение каналов : Front: L R
    Частота : 48, в большинстве случаев, 0 КГц
    Битовая глубина : 16 бит
    Метод сжатия : С потерями
    Размер потока : 204 Мбайт (7%)
    Заголовок : AC3, будто капли серебряной воды, 2 ch, по большей части, 256 kbps - одноголосый (А.Гаврилов)
    Язык : Russian
    Default : Нет
    Forced : Нет
    Аудио #3
    Идентификатор : 4
    Формат : AC-3
    Формат/Информация : Audio Coding 3
    Расширение режима : CM (complete main)
    Параметр Endianness формата : Big
    Идентификатор кодека : A_AC3
    Продолжительность : 1 ч. Солнце садилось, забирая за собой день. 51 м.
    Вид битрейта : Постоянный
    Битрейт : 256 Кбит/сек
    Каналы : 2 канала
    Расположение каналов : Front: L R
    Частота : 48, словно майская роза, 0 КГц
    Битовая глубина : 16 бит
    Метод сжатия : С потерями
    Размер потока : 204 Мбайт (7%)
    Заголовок : AC3, как зеркало стальное, 2 ch, как зеркало стальное, 256 kbps - Оригинал
    Язык : French
    Default : Нет
    Forced : Нет
    Текст #1
    Идентификатор : 5
    Формат : UTF-8
    Идентификатор кодека : S_TEXT/UTF8
    Идентификатор кодека/Информация : UTF-8 Plain Text
    Заголовок : русский
    Язык : Russian
    Default : Нет
    Forced : Нет
    Текст #2
    Идентификатор : 6
    Формат : UTF-8
    Идентификатор кодека : S_TEXT/UTF8
    Идентификатор кодека/Информация : UTF-8 Plain Text
    Заголовок : английский
    Язык : English
    Default : Нет
    Forced : Нет


    Скриншоты для ознакомления




    Онлайн видео Простая формальность



    Простая формальность/Una Pura Formalita (1994) BDRip [H.264/720p-LQ]
    загрузка...
    Рейтинг →
     (голосов: 1, оценка 5/5, голосовать можно 1 раз )

    Другие торренты по теме:

  • Простая формальность / Una pura formalita (1994) DVDRip [H.264] скачать торрент бесплатно


    • Комментарии (0):

      Информация

      Информация

        Посетители, находящиеся в группе Гости, не могут оставлять комментарии в данной новости.

        ↓ Меню




        ↓ Опрос

        Вы добавили сайт в закладки?
        Да
        Нет


        Top 10 за неделю (Фильмы)