.
Авторизация | Регистрация
Хочешь лучшие торренты? Добавь свой email!
Добавить

Торрент скачать бесплатно

» » Простая формальность / Una Pura Formalita (1994) BDRip [H.264 / 720p-LQ] торрент скачать бесплатно




    Простая формальность / Una Pura Formalita (1994) BDRip [H.264 / 720p-LQ] торрент скачать бесплатно

    Опубликовал: Админ | Дата: 9-07-2016, 04:00 | Просмотров: 57

    Производство: , Франция, кинокомпания: Cecchi Gori Group Tiger Cinematografica, DD Productions, Film Par Film, Orly Films, Sidonie, TF1 Films Production
    Жанр: Триллер, Драма, Детектив, Криминал
    Режиссер: Джузеппе Торнаторе

    Актеры
    Жерар Депардьё, Роман Полански, Серджио Рубини, Никола Ди Пинто, Тано Чимароза, Паоло Ломбарди, Мария Роза Спаньоло, Альберто Сирони, Джованни Морриконе, Махди Крайем и др.

    Описание

    Той ночью в лесу разразилась страшная гроза. Пытаясь спрятаться, писатель Оноф (Депардьё) бежит, не разбирая дороги, как вдруг путь ему преграждают трое полицейских. Его арестуют и доставляют в участок, где странный полицейский комиссар (Полански), легко цитирующий любые отрывки из романов Онофа, начинает свой необычный допрос. Задушевная беседа то и дело сменяется допросом с пристрастием, а затем вновь переходит в задушевную беседу, а Оноф никак не может понять: в чем его преступление, за что он арестован? А ещё он никак не может вспомнить, как он, собственно, оказался в лесу…

    Возраст: 16+ (зрителям, достигшим 16 лет)
    Рейтинг MPAA: PG-13 (детям до 13 лет просмотр нежелателен)
    Продолжительность: 01: 51: 16
    Качество видео: BDRip
    Перевод: Многоголосый закадровый, авторский
    Язык субтитров: Русский, английский
    Вид субтитров: Вшитые, отключаемые
    Видео: AVC/H.264, 1280x544, ~2908 kbps
    Аудио#1: AC3, 2 ch, 256 kbps | Русский МVO (R5)
    Аудио#2: AC3, 2 ch, 256 kbps | Русский АVO (А.Гаврилов)
    Аудио#3: AC3, 2 ch, 256 kbps | Французский - оригинал
    Код:

    Общее
    Уникальный идентификатор : 182675505320090086531955408992519751792 (0x896E05C7D0F1FBCF8DB16E0A86868870)
    Полное имя : J:Простая формальностьПростая формальность.1994.mkv
    Формат : Matroska
    Версия формата : Version 4/Version 2
    Размер файла : 2, 92 Гбайт
    Продолжительность : 1 ч. 51 м.
    Общий поток : 3751 Кбит/сек
    Название фильма : Release for Topmost
    Дата кодирования : UTC 2016-07-06 19:28:48
    Программа кодирования : mkvmerge v6.2.0 (\'Promised Land\') built on Apr 28 2013 12:22:01
    Библиотека кодирования : libebml v1.3.0 + libmatroska v1.4.0
    Видео
    Идентификатор : 1
    Формат : AVC
    Формат/Информация : Advanced Video Codec
    Профиль формата :Main@L5.1
    Параметр CABAC формата : Да
    Параметр ReFrames формата : 1 кадр
    Идентификатор кодека : V_MPEG4/ISO/AVC
    Продолжительность : 1 ч. 51 м.
    Битрейт : 2908 Кбит/сек
    Ширина : 1280 пикселей
    Высота : 544 пикселя
    Соотношение сторон : 2, 35:1
    Режим частоты кадров : Постоянный
    Частота кадров : 23, 976 кадра/сек
    Цветовое пространство : YUV
    Субдискретизация насыщенности : 4:2:0
    Битовая глубина : 8 бит
    Тип развёртки : Прогрессивная
    Бит/(Пиксели*Кадры) : 0.174
    Размер потока : 2, 26 Гбайт (78%)
    Заголовок : Простая формальность.1994 (Release for Topmost)
    Язык : French
    Default : Да
    Forced : Нет
    Аудио #1
    Идентификатор : 2
    Формат : AC-3
    Формат/Информация : Audio Coding 3
    Расширение режима : CM (complete main)
    Параметр Endianness формата : Big
    Идентификатор кодека : A_AC3
    Продолжительность : 1 ч. 51 м.
    Вид битрейта : Постоянный
    Битрейт : 256 Кбит/сек
    Каналы : 2 канала
    Расположение каналов : Front: L R
    Частота : 48, 0 КГц
    Битовая глубина : 16 бит
    Метод сжатия : С потерями
    Размер потока : 204 Мбайт (7%)
    Заголовок : AC3, 2 ch, 256 kbps - Многоголосый (R5)
    Язык : Russian
    Default : Да
    Forced : Нет
    Аудио #2
    Идентификатор : 3
    Формат : AC-3
    Формат/Информация : Audio Coding 3
    Расширение режима : CM (complete main)
    Параметр Endianness формата : Big
    Идентификатор кодека : A_AC3
    Продолжительность : 1 ч. Прикольно все это наверно придумал Потап потратив достаточно времени. 51 м.
    Вид битрейта : Постоянный
    Битрейт : 256 Кбит/сек
    Каналы : 2 канала
    Расположение каналов : Front: L R
    Частота : 48, 0 КГц
    Битовая глубина : 16 бит
    Метод сжатия : С потерями
    Размер потока : 204 Мбайт (7%)
    Заголовок : AC3, 2 ch, 256 kbps - одноголосый (А.Гаврилов)
    Язык : Russian
    Default : Нет
    Forced : Нет
    Аудио #3
    Идентификатор : 4
    Формат : AC-3
    Формат/Информация : Audio Coding 3
    Расширение режима : CM (complete main)
    Параметр Endianness формата : Big
    Идентификатор кодека : A_AC3
    Продолжительность : 1 ч. 51 м.
    Вид битрейта : Постоянный
    Битрейт : 256 Кбит/сек
    Каналы : 2 канала
    Расположение каналов : Front: L R
    Частота : 48, 0 КГц
    Битовая глубина : 16 бит
    Метод сжатия : С потерями
    Размер потока : 204 Мбайт (7%)
    Заголовок : AC3, 2 ch, 256 kbps - Оригинал
    Язык : French
    Default : Нет
    Forced : Нет
    Текст #1
    Идентификатор : 5
    Формат : UTF-8
    Идентификатор кодека : S_TEXT/UTF8
    Идентификатор кодека/Информация : UTF-8 Plain Text
    Заголовок : русский
    Язык : Russian
    Default : Нет
    Forced : Нет
    Текст #2
    Идентификатор : 6
    Формат : UTF-8
    Идентификатор кодека : S_TEXT/UTF8
    Идентификатор кодека/Информация : UTF-8 Plain Text
    Заголовок : английский
    Язык : English
    Default : Нет
    Forced : Нет


    Скриншоты для ознакомления




    Онлайн видео Простая формальность



    Простая формальность/Una Pura Formalita (1994) BDRip [H.264/720p-LQ]
    загрузка...
    Рейтинг →
     (голосов: 1, оценка 3/5, голосовать можно 1 раз )

    Другие торренты по теме:

  • Простая формальность / Una pura formalita (1994) DVDRip [H.264]


    • Комментарии (0):

      Информация

      Информация

        Посетители, находящиеся в группе Гости, не могут оставлять комментарии в данной новости.

        ↓ Меню




        ↓ Опрос

        Вы добавили сайт в закладки?
        Да
        Нет


        Top 10 за месяц (Фильмы)