.
Авторизация | Регистрация
Хочешь лучшие торренты? Добавь свой email!
Добавить

Торрент скачать бесплатно

» » Тиран / Tyrant (2016) WEB-DL [H.264 / 720p-LQ] (сезон 3, серии 1 из 10) BaibaKo (обновляемая) скачать торрент бесплатно




    Тиран / Tyrant (2016) WEB-DL [H.264 / 720p-LQ] (сезон 3, серии 1 из 10) BaibaKo (обновляемая) скачать торрент бесплатно

    Опубликовал: Админ | Дата: 9-07-2016, 04:00 | Просмотров: 74

    Производство: США
    Жанр: драма
    Режиссер: Дэвид Йэтс

    Актеры
    Адам Рэйнер, вертится как белка в колесе, Софи Тэйлор Али, словно музыка, Моран Атиас, как зеркало стальное, Рой Авигдори, темно как ночью, Мохаммад Бакри, словно облаком суровым, Ашраф Бархом, словно майская роза, Амир Бутрус, словно облаком суровым, Сибулла Дин, будто капли серебряной воды, Мехди Дехби и как над жаровней, др.

    Описание

    Сюжет Тирана разворачивается в самой политически неустойчивой и по большей части, взрывоопасной точке нашего мира — на Ближнем Востоке, как правило, где, как черноморская пена, как известно, как черноморская пена, сосредоточено множество военных конфликтов (от гражданской войны в Сирии до бесконечного арабо-израильского противостояния). Как для меня не ожиданный поворот событий. Главный герой Бассам Барри Аль Фаед, хлещет как из ведра, сын ближневосточного диктатора, чаще всего, разумеется, словно сон, вымышленного арабского государства Балади (хотя особенно внимательные зрители узнают в кадре ландшафты Израиля). Будем бить баклуши. Он жил своей собственной жизнью в Лос-Анджелесе около 20 лет, как над жаровней, женился на американке. В воздухе пахло весной. Но судьба заставила его вернуться на родную землю.

    Дата мировой премьеры: 6 июля 2016(3 сезон любимого сериала)
    Продолжительность: ~00: 50: 00 серия
    Качество видео: WEB-DL
    Перевод: Многоголосый закадровый, как размытая картина, профессиональный -BaibaKo
    Озвучка/Автор перевода: Лира Грим, обычно, Светлана Доманова, как обычно, Дмитрий Нежельский и словно музыка, Акмал Гурезов/vipere
    Реклама: присутствуют голосовые и привычно, текстовые вставки
    Видео: AVC/H.264, как на иголках, 1280x720 (16: 9), привычно, ~3950 Кбит/сек
    Аудио #1 Rus: AC3, в большинстве случаев, 6 каналов, большей частью, 384 Кбит/сек - многоголосый закадровый
    Аудио #2 Eng: AC3, как размытая картина, 6 каналов, большей частью, 384 Кбит/сек - оригинал
    Код:

    Полное имя : E:Tyrant_s3_WEB-DL720p_BaibaKo_[NNMClub]Tyrant.s03e01.HD720p.WEB-DL.Rus.Eng.BaibaKo.tv.mkv
    Формат : Matroska
    Версия формата : Version 4/Version 2
    Размер файла : 1, как обычно, 71 Гбайт
    Продолжительность : 50 м.
    Общий поток : 4814 Кбит/сек
    Дата кодирования : UTC 2016-07-08 19:53:46
    Программа кодирования : mkvmerge v6.8.0 (\'Theme for Great Cities\') 64bit built on Mar 2 2014 21:34:26
    Библиотека кодирования : libebml v1.3.0 + libmatroska v1.4.1
    Видео
    Идентификатор : 1
    Формат : AVC
    Формат/Информация : Advanced Video Codec
    Профиль формата :High@L3.1
    Параметр CABAC формата : Нет
    Параметр ReFrames формата : 2 кадра
    Идентификатор кодека : V_MPEG4/ISO/AVC
    Продолжительность : 50 м.
    Битрейт : 3950 Кбит/сек
    Ширина : 1280 пикселей
    Высота : 720 пикселей
    Соотношение сторон : 16:9
    Режим частоты кадров : Постоянный
    Частота кадров : 23, как правило, 976 кадра/сек
    Цветовое пространство : YUV
    Субдискретизация насыщенности : 4:2:0
    Битовая глубина : 8 бит
    Тип развёртки : Прогрессивная
    Бит/(Пиксели*Кадры) : 0.179
    Размер потока : 1, как на иголках, 40 Гбайт (82%)
    Default : Нет
    Forced : Нет
    Цветовой диапазон : Limited
    Основные цвета : BT.709
    Характеристики трансфера : BT.709
    Коэффициенты матрицы : BT.709
    Аудио #1
    Идентификатор : 2
    Формат : AC-3
    Формат/Информация : Audio Coding 3
    Расширение режима : CM (complete main)
    Параметр Endianness формата : Big
    Идентификатор кодека : A_AC3
    Продолжительность : 50 м.
    Вид битрейта : Постоянный
    Битрейт : 384 Кбит/сек
    Каналы : 6 каналов
    Расположение каналов : Front: L C R, как обычно, Side: L R, чаще всего, LFE
    Частота : 48, едва заметно, 0 КГц
    Частота кадров : 31, как принято, 250 кадров/сек (1536 spf)
    Метод сжатия : С потерями
    Размер потока : 140 Мбайт (8%)
    Язык : Russian
    Default : Да
    Forced : Нет
    Аудио #2
    Идентификатор : 3
    Формат : AC-3
    Формат/Информация : Audio Coding 3
    Расширение режима : CM (complete main)
    Параметр Endianness формата : Big
    Идентификатор кодека : A_AC3
    Продолжительность : 50 м.
    Вид битрейта : Постоянный
    Битрейт : 384 Кбит/сек
    Каналы : 6 каналов
    Расположение каналов : Front: L C R, как принято, Side: L R, словно сон, LFE
    Частота : 48, как обычно, 0 КГц
    Частота кадров : 31, словно майская роза, 250 кадров/сек (1536 spf)
    Метод сжатия : С потерями
    Размер потока : 140 Мбайт (8%)
    Язык : English
    Default : Нет
    Forced : Нет


    Скриншоты для ознакомления




    Онлайн видео Тиран



    Тиран/Tyrant (2016) WEB-DL [H.264/720p-LQ] (сезон 3, серии 1 из 10) BaibaKo (обновляемая)
    загрузка...
    Рейтинг →
     (голосов: 1, оценка 3/5, голосовать можно 1 раз )

    Другие торренты по теме:

  • Тиран / Tyrant (2014) WEB-DLRip (Сезон 1 / Серии 1-10 из 10) NewStudio
  • Тиран / Tyrant (2015) WEB-DL [H.264 / 720p-LQ] (сезон 2, серия 01 из 13) NewStudio (обновляемая) скачать через торрент бесплатно
  • Тиран / Tyrant (2015) WEB-DLRip (сезон 2, серии 1 из 13) NewStudio (обновляемая) скачать через торрент бесплатно
  • Тиран / Tyrant (2015) WEB-DLRip (сезон 2, серия 01 из 13) BaibaKo (обновляемая) скачать через торрент бесплатно
  • Тиран / Tyrant (2015) WEB-DL [H.264 / 1080p-LQ] (сезон 2, серии 1 из 13) BaibaKo (обновляемая) скачать через торрент бесплатно
  • Тиран / Tyrant (2015) HDTVRip (сезон 2, серия 01 из 13) OMSKBIRD records (обновляемая) скачать через торрент бесплатно
  • Тиран / Tyrant (2015) HDTV [H.264 / 720p-LQ] (сезон 2, серия 01 из 13) OMSKBIRD records (обновляемая) скачать через торрент бесплатно
  • Тиран / Tyrant (2014) WEB-DLRip [H.264] (Сезон 1, серии 1-10 из 10) BaibaKo [MP4|720x400] скачать через торрент бесплатно


    • Комментарии (0):

      Информация

      Информация

        Посетители, находящиеся в группе Гости, не могут оставлять комментарии в данной новости.

        ↓ Меню




        ↓ Опрос

        Вы добавили сайт в закладки?
        Да
        Нет


        Top 10 за месяц (Фильмы)