.
Авторизация | Регистрация
Хочешь лучшие торренты? Добавь свой email!
Добавить

Торрент скачать бесплатно

» » Тиран / Tyrant (2016) WEB-DLRip (сезон 3, серии 1 из 10) OMSKBIRD records (обновляемая) торрент скачать бесплатно




    Тиран / Tyrant (2016) WEB-DLRip (сезон 3, серии 1 из 10) OMSKBIRD records (обновляемая) торрент скачать бесплатно

    Опубликовал: Админ | Дата: 9-07-2016, 04:00 | Просмотров: 39

    Производство: США
    Жанр: боевик, триллер, драма
    Режиссер: Майкл Леманн, Гвинет Хердер-Пэйтон, Дэвид Петрарка

    Актеры
    Адам Рэйнер, Софи Тэйлор Али, Моран Атиас, Рой Авигдори, Мохаммад Бакри, Ашраф Бархом, Амир Бутрус, Сибулла Дин, Мехди Дехби и др.

    Описание

    Сюжет Тирана разворачивается в самой политически неустойчивой и взрывоопасной точке нашего мира — на Ближнем Востоке, где, как известно, сосредоточено множество военных конфликтов (от гражданской войны в Сирии до бесконечного арабо-израильского противостояния). Главный герой Бассам Барри Аль Фаед, сын ближневосточного диктатора, разумеется, вымышленного арабского государства Балади (хотя особенно внимательные зрители узнают в кадре ландшафты Израиля). Он жил своей собственной жизнью в Лос-Анджелесе около 20 лет, женился на американке. Но судьба заставила его вернуться на родную землю.

    Релиз от: OMSKBIRD records
    Продолжительность: ~ 00: 51: 00 серия
    Качество видео: WEB-DLRip
    Перевод: Многоголосый закадровый, профессиональный - OMSKBIRD records
    Реклама: присутствуют аудио вставки рекламы
    Видео: Xvid, 720x400 (16: 9), ~2300 kbps
    Аудио # rus: AC3, 6 ch, 384 kbps, CBR
    Аудио #eng: AC3, 6 ch, 384 kbps, CBR
    Код:

    General
    Complete name : G:FilmsTyrant.S03.400p.WEB-DLRip.OmskBirdTyrant.S03E01.400p.WEB-DLRip.OmskBird.avi
    Format : AVI
    Format/Info : Audio Video Interleave
    File size : 1.11 GiB
    Duration : 50mn 54s
    Overall bit rate : 3 121 Kbps
    Writing application : VirtualDubMod 1.5.10.3 (build 2550/release)
    Writing library : VirtualDubMod build 2550/release
    Video
    ID : 0
    Format : MPEG-4 Visual
    Format profile : Advanced Simple@L5
    Format settings, BVOP : 1
    Format settings, QPel : No
    Format settings, GMC : No warppoints
    Format settings, Matrix : Default (MPEG)
    Codec ID : XVID
    Codec ID/Hint : XviD
    Duration : 50mn 54s
    Bit rate : 2 339 Kbps
    Width : 720 pixels
    Height : 400 pixels
    Display aspect ratio : 16:9
    Frame rate : 23.976 (23976/1000) fps
    Color space : YUV
    Chroma subsampling : 4:2:0
    Bit depth : 8 bits
    Scan type : Progressive
    Compression mode : Lossy
    Bits/(Pixel*Frame) : 0.339
    Stream size : 852 MiB (75%)
    Writing library : XviD 73
    Audio #1
    ID : 1
    Format : AC-3
    Format/Info : Audio Coding 3
    Mode extension : CM (complete main)
    Format settings, Endianness : Big
    Codec ID : 2000
    Duration : 50mn 54s
    Bit rate mode : Constant
    Bit rate : 384 Kbps
    Channel(s) : 6 channels
    Channel positions : Front: L C R, Side: L R, LFE
    Sampling rate : 48.0 KHz
    Frame rate : 31.250 fps (1536 spf)
    Compression mode : Lossy
    Stream size : 140 MiB (12%)
    Alignment : Split accross interleaves
    Interleave, duration : 42 ms (1.00 video frame)
    Interleave, preload duratio : 500 ms
    Audio #2
    ID : 2
    Format : AC-3
    Format/Info : Audio Coding 3
    Mode extension : CM (complete main)
    Format settings, Endianness : Big
    Codec ID : 2000
    Duration : 50mn 54s
    Bit rate mode : Constant
    Bit rate : 384 Kbps
    Channel(s) : 6 channels
    Channel positions : Front: L C R, Side: L R, LFE
    Sampling rate : 48.0 KHz
    Frame rate : 31.250 fps (1536 spf)
    Compression mode : Lossy
    Stream size : 140 MiB (12%)
    Alignment : Split accross interleaves
    Interleave, duration : 42 ms (1.00 video frame)
    Interleave, preload duratio : 500 ms


    Скриншоты для ознакомления




    Онлайн видео Тиран



    Тиран/Tyrant (2016) WEB-DLRip (сезон 3, серии 1 из 10) OMSKBIRD records (обновляемая)
    загрузка...
    Рейтинг →
     (голосов: 1, оценка 5/5, голосовать можно 1 раз )

    Другие торренты по теме:

  • Тиран / Tyrant (2014) WEB-DLRip (Сезон 1 / Серии 1-10 из 10) NewStudio
  • Тиран / Tyrant (2015) WEB-DL [H.264 / 720p-LQ] (сезон 2, серия 01 из 13) NewStudio (обновляемая) скачать через торрент бесплатно
  • Тиран / Tyrant (2015) WEB-DLRip (сезон 2, серии 1 из 13) NewStudio (обновляемая) скачать через торрент бесплатно
  • Тиран / Tyrant (2015) WEB-DLRip (сезон 2, серия 01 из 13) BaibaKo (обновляемая) скачать через торрент бесплатно
  • Тиран / Tyrant (2015) WEB-DL [H.264 / 1080p-LQ] (сезон 2, серии 1 из 13) BaibaKo (обновляемая) скачать через торрент бесплатно
  • Тиран / Tyrant (2015) HDTVRip (сезон 2, серия 01 из 13) OMSKBIRD records (обновляемая) скачать через торрент бесплатно
  • Тиран / Tyrant (2015) HDTV [H.264 / 720p-LQ] (сезон 2, серия 01 из 13) OMSKBIRD records (обновляемая) скачать через торрент бесплатно
  • Тиран / Tyrant (2014) WEB-DLRip [H.264] (Сезон 1, серии 1-10 из 10) BaibaKo [MP4|720x400] скачать через торрент бесплатно


    • Комментарии (0):

      Информация

      Информация

        Посетители, находящиеся в группе Гости, не могут оставлять комментарии в данной новости.

        ↓ Меню




        ↓ Опрос

        Вы добавили сайт в закладки?
        Да
        Нет


        Top 10 за месяц (Фильмы)