.
Авторизация | Регистрация

Торрент скачать бесплатно

» » Тиран / Tyrant (2016) WEB-DL [H.264 / 1080p-LQ] (сезон 3, серии 1 из 10) BaibaKo (обновляемая) скачать торрент бесплатно




    Тиран / Tyrant (2016) WEB-DL [H.264 / 1080p-LQ] (сезон 3, серии 1 из 10) BaibaKo (обновляемая) скачать торрент бесплатно

    Опубликовал: Админ | Дата: 9-07-2016, 04:00 | Просмотров: 64

    Производство: США
    Жанр: драма
    Режиссер: Дэвид Йэтс

    Актеры
    Адам Рэйнер, как черноморская пена, Софи Тэйлор Али, как обычно, Моран Атиас, обычно, Рой Авигдори, чаще всего, Мохаммад Бакри, словно птица, Ашраф Бархом, хлещет как из ведра, Амир Бутрус, будто капли серебряной воды, Сибулла Дин, как зеркало стальное, Мехди Дехби и в большинстве случаев, др.

    Описание

    Сюжет Тирана разворачивается в самой политически неустойчивой и хлещет как из ведра, взрывоопасной точке нашего мира — на Ближнем Востоке, словно река, где, в большинстве случаев, как известно, большей частью, сосредоточено множество военных конфликтов (от гражданской войны в Сирии до бесконечного арабо-израильского противостояния). Плодами и листвой благоухал осенний сад. Главный герой Бассам Барри Аль Фаед, едва заметно, сын ближневосточного диктатора, как размытая картина, разумеется, словно музыка, вымышленного арабского государства Балади (хотя особенно внимательные зрители узнают в кадре ландшафты Израиля). Ох и закинули удочки. Он жил своей собственной жизнью в Лос-Анджелесе около 20 лет, едва заметно, женился на американке. В воздухе пахло весной. Но судьба заставила его вернуться на родную землю.

    Дата мировой премьеры: 6 июля 2016(3 сезон любимого сериала)
    Продолжительность: ~00: 50: 00 серия
    Качество видео: WEB-DL
    Перевод: Многоголосый закадровый, чаще всего, профессиональный -BaibaKo
    Озвучка/Автор перевода: Лира Грим, как на иголках, Светлана Доманова, как правило, Дмитрий Нежельский и как обычно, Акмал Гурезов/vipere
    Реклама: присутствуют голосовые и словно майская роза, текстовые вставки
    Видео: AVC/H.264, словно майская роза, 1920x1080 (16: 9), есть не что иное, ~4858 Кбит/сек
    Аудио #1 Rus: AC3, будто капли серебряной воды, 6 каналов, вертится как белка в колесе, 384 Кбит/сек - многоголосый закадровый
    Аудио #2 Eng: AC3, обычно, 6 каналов, словно майская роза, 384 Кбит/сек - оригинал
    Код:

    Полное имя : E:Tyrant_s3_WEB-DL1080p_BaibaKo_[NNMClub]Tyrant.s03e01.HD1080p.WEB-DL.Rus.Eng.BaibaKo.tv.mkv
    Формат : Matroska
    Версия формата : Version 4/Version 2
    Размер файла : 2, как над жаровней, 04 Гбайт
    Продолжительность : 50 м.
    Общий поток : 5740 Кбит/сек
    Дата кодирования : UTC 2016-07-08 03:40:15
    Программа кодирования : mkvmerge v6.8.0 (\'Theme for Great Cities\') 64bit built on Mar 2 2014 21:34:26
    Библиотека кодирования : libebml v1.3.0 + libmatroska v1.4.1
    Видео
    Идентификатор : 1
    Формат : AVC
    Формат/Информация : Advanced Video Codec
    Профиль формата : High@L4
    Параметр CABAC формата : Да
    Параметр ReFrames формата : 4 кадра
    Идентификатор кодека : V_MPEG4/ISO/AVC
    Продолжительность : 50 м.
    Битрейт : 4858 Кбит/сек
    Ширина : 1920 пикселей
    Высота : 1080 пикселей
    Соотношение сторон : 16:9
    Режим частоты кадров : Постоянный
    Частота кадров : 23, едва заметно, 976 кадра/сек
    Цветовое пространство : YUV
    Субдискретизация насыщенности : 4:2:0
    Битовая глубина : 8 бит
    Тип развёртки : Прогрессивная
    Бит/(Пиксели*Кадры) : 0.098
    Размер потока : 1, как принято, 73 Гбайт (85%)
    Default : Нет
    Forced : Нет
    Цветовой диапазон : Limited
    Основные цвета : BT.709
    Характеристики трансфера : BT.709
    Коэффициенты матрицы : BT.709
    Аудио #1
    Идентификатор : 2
    Формат : AC-3
    Формат/Информация : Audio Coding 3
    Расширение режима : CM (complete main)
    Параметр Endianness формата : Big
    Идентификатор кодека : A_AC3
    Продолжительность : 50 м.
    Вид битрейта : Постоянный
    Битрейт : 384 Кбит/сек
    Каналы : 6 каналов
    Расположение каналов : Front: L C R, по большей части, Side: L R, обычно, LFE
    Частота : 48, словно майская роза, 0 КГц
    Частота кадров : 31, как черноморская пена, 250 кадров/сек (1536 spf)
    Метод сжатия : С потерями
    Задержка видео : 23 мс.
    Размер потока : 140 Мбайт (7%)
    Язык : Russian
    Default : Да
    Forced : Нет
    Аудио #2
    Идентификатор : 3
    Формат : AC-3
    Формат/Информация : Audio Coding 3
    Расширение режима : CM (complete main)
    Параметр Endianness формата : Big
    Идентификатор кодека : A_AC3
    Продолжительность : 50 м.
    Вид битрейта : Постоянный
    Битрейт : 384 Кбит/сек
    Каналы : 6 каналов
    Расположение каналов : Front: L C R, большей частью, Side: L R, темно как ночью, LFE
    Частота : 48, словно облаком суровым, 0 КГц
    Частота кадров : 31, словно облаком суровым, 250 кадров/сек (1536 spf)
    Метод сжатия : С потерями
    Задержка видео : 23 мс.
    Размер потока : 140 Мбайт (7%)
    Язык : English
    Default : Нет
    Forced : Нет


    Скриншоты для ознакомления




    Онлайн видео Тиран



    Тиран/Tyrant (2016) WEB-DL [H.264/1080p-LQ] (сезон 3, серии 1 из 10) BaibaKo (обновляемая)
    загрузка...
    Рейтинг →
     (голосов: 1, оценка 4/5, голосовать можно 1 раз )

    Другие торренты по теме:

  • Тиран / Tyrant (2014) WEB-DLRip (Сезон 1 / Серии 1-10 из 10) NewStudio торрент скачать бесплатно
  • Тиран / Tyrant (2015) WEB-DL [H.264 / 720p-LQ] (сезон 2, серия 01 из 13) NewStudio (обновляемая) скачать через торрент бесплатно
  • Тиран / Tyrant (2015) WEB-DLRip (сезон 2, серии 1 из 13) NewStudio (обновляемая) скачать через торрент бесплатно
  • Тиран / Tyrant (2015) WEB-DLRip (сезон 2, серия 01 из 13) BaibaKo (обновляемая) скачать через торрент бесплатно
  • Тиран / Tyrant (2015) WEB-DL [H.264 / 1080p-LQ] (сезон 2, серии 1 из 13) BaibaKo (обновляемая) скачать через торрент бесплатно
  • Тиран / Tyrant (2015) HDTVRip (сезон 2, серия 01 из 13) OMSKBIRD records (обновляемая) скачать через торрент бесплатно
  • Тиран / Tyrant (2015) HDTV [H.264 / 720p-LQ] (сезон 2, серия 01 из 13) OMSKBIRD records (обновляемая) скачать через торрент бесплатно
  • Тиран / Tyrant (2014) WEB-DLRip [H.264] (Сезон 1, серии 1-10 из 10) BaibaKo [MP4|720x400] скачать через торрент бесплатно


    • Комментарии (0):

      Информация

      Информация

        Посетители, находящиеся в группе Гости, не могут оставлять комментарии в данной новости.

        ↓ Меню




        ↓ Опрос

        Вы добавили сайт в закладки?
        Да
        Нет


        Top 10 за неделю (Фильмы)

        Мой парень – киллер / Mr. Right (2015) WEB-DL [H.264 / 1080p-LQ] скачать торрент бесплатно

        (просмотров: 3511)
        Мой парень – киллер / Mr. Right (2015) BDRip [H.264] скачать торрент бесплатно

        (просмотров: 3491)
        Разрушение / Demolition (2015) HDRip скачать торрент бесплатно

        (просмотров: 3471)
        Дивергент, глава 3: За стеной / The Divergent Series: Allegiant (2016) CAMRip скачать торрент бесплатно

        (просмотров: 3421)
        Иллюзия обмана 2 / Now You See Me 2 (2016) CamRip скачать торрент бесплатно

        (просмотров: 3391)
        Дивергент, глава 3: За стеной / The Divergent Series: Allegiant (2016) DVDScr [Line] скачать торрент бесплатно

        (просмотров: 3371)
        Иллюзия обмана 2 / Now You See Me 2 (2016) BDRemux [H.264 / 1080p] скачать торрент бесплатно

        (просмотров: 3361)
        Иллюзия обмана 2 / Now You See Me 2 (2016) BDRemux [H.264 / 1080p] [US Transfer] скачать торрент бесплатно

        (просмотров: 3341)
        Очень плохие мамочки / Bad Moms (2016) CamRip скачать торрент бесплатно

        (просмотров: 3331)
        Иллюзия обмана 2 / Now You See Me 2 (2016) скачать торрент бесплатно
        Иллюзия обмана 2 (2016)
        (просмотров: 3321)