.
Авторизация | Регистрация
Хочешь лучшие торренты? Добавь свой email!
Добавить

Торрент скачать бесплатно

» » Риццоли и Айлc / Rizzoli & Isles (2016) WEB-DL [H.264 / 1080p-LQ] (сезон 7, серии 1-5 из 13) NewStudio (обновляемая) торрент скачать бесплатно




    Риццоли и Айлc / Rizzoli & Isles (2016) WEB-DL [H.264 / 1080p-LQ] (сезон 7, серии 1-5 из 13) NewStudio (обновляемая) торрент скачать бесплатно

    Опубликовал: Админ | Дата: 9-07-2016, 04:00 | Просмотров: 58

    Производство: США
    Жанр: драма, криминал, детектив
    Режиссер: Марк Абер, Стив Робин, Майкл Кэтлман

    Актеры
    Энджи Хармон, Саша Александр, Джордан Бриджес, Брюс МакГилл, Лоррейн Бракко, Ли Томпсон Янг, Брайан Гудман, Тина Хуанг, Колин Эглсфилд и др.

    Описание

    Главная героиня сериала — Джейн Риццоли, бостонский детектив, которая вместе с патологоанатомом Морой Айлс, раскрывает преступления.

    Возраст: 12+ (зрителям, достигшим 12 лет)
    Продолжительность: ~00: 42: 00 серия
    Качество видео: WEB-DL
    Перевод: Многоголосый закадровый, профессиональный -NewStudio
    Реклама: присутствуют аудио и видео вставки рекламы
    Видео: AVC/H.264, 1916х1076 (16: 9), ~5029 Kbps
    Аудио Rus: AC-3, 6 ch, 48.0 KHz, 384 Kbps - многоголосый закадровый
    Аудио Eng: AC-3, 6 ch, 48.0 KHz, 384 Kbps - оригинал
    Код:

    Rizzoli..Isles.s07e01.WEBDL.1080p.NewStudio.mkv
    Format : Matroska
    Format version : Version 4/Version 2
    File size : 1.71 GiB
    Duration : 42mn 5s
    Overall bit rate : 5 800 Kbps
    Encoded date : UTC 2016-06-10 20:39:34
    Writing application : mkvmerge v8.2.0 (\'World of Adventure\') 32bit
    Writing library : libebml v1.3.1 + libmatroska v1.4.2
    Video
    ID : 1
    Format : AVC
    Format/Info : Advanced Video Codec
    Format profile : High@L4
    Format settings, CABAC : Yes
    Format settings, ReFrames : 4 frames
    Codec ID : V_MPEG4/ISO/AVC
    Duration : 42mn 5s
    Bit rate : 5 029 Kbps
    Width : 1 916 pixels
    Height : 1 076 pixels
    Display aspect ratio : 16:9
    Frame rate mode : Constant
    Frame rate : 23.976 (23976/1000) fps
    Color space : YUV
    Chroma subsampling : 4:2:0
    Bit depth : 8 bits
    Scan type : Progressive
    Bits/(Pixel*Frame) : 0.102
    Stream size : 1.48 GiB (87%)
    Language : English
    Default : Yes
    Forced : No
    Color range : Limited
    Color primaries : BT.709
    Transfer characteristics : BT.709
    Matrix coefficients : BT.709
    Audio #1
    ID : 2
    Format : AC-3
    Format/Info : Audio Coding 3
    Mode extension : CM (complete main)
    Format settings, Endianness : Big
    Codec ID : A_AC3
    Duration : 42mn 5s
    Bit rate mode : Constant
    Bit rate : 384 Kbps
    Channel(s) : 6 channels
    Channel positions : Front: L C R, Side: L R, LFE
    Sampling rate : 48.0 KHz
    Frame rate : 31.250 fps (1536 spf)
    Compression mode : Lossy
    Stream size : 116 MiB (7%)
    Title : NewStudio.TV
    Language : Russian
    Default : Yes
    Forced : No
    Audio #2
    ID : 3
    Format : AC-3
    Format/Info : Audio Coding 3
    Mode extension : CM (complete main)
    Format settings, Endianness : Big
    Codec ID : A_AC3
    Duration : 42mn 5s
    Bit rate mode : Constant
    Bit rate : 384 Kbps
    Channel(s) : 6 channels
    Channel positions : Front: L C R, Side: L R, LFE
    Sampling rate : 48.0 KHz
    Frame rate : 31.250 fps (1536 spf)
    Compression mode : Lossy
    Stream size : 116 MiB (7%)
    Language : English
    Default : No
    Forced : No


    Скриншоты для ознакомления




    Онлайн видео Риццоли и Айлc



    Риццоли и Айлc/Rizzoli & Isles (2016) WEB-DL [H.264/1080p-LQ] (сезон 7, серии 1-5 из 13) NewStudio (обновляемая)
    загрузка...
    Рейтинг →
     (голосов: 1, оценка 5/5, голосовать можно 1 раз )

    Другие торренты по теме:

  • Риццоли и Айлc / Rizzoli & Isles (2014) WEB-DLRip (Сезон 5 / Серии 1-13 из 18 ()) NewStudio (обновляемая) скачать через торрент бесплатно
  • Риццоли и Айлc / Rizzoli & Isles (2015) WEB-DLRip (сезон 6, серии 1 из 18) NewStudio (обновляемая) скачать через торрент бесплатно
  • Риццоли и Айлc / Rizzoli & Isles (2016) WEB-DLRip (сезон 7, серии 1 из 13) NewStudio (обновляемая)


    • Комментарии (0):

      Информация

      Информация

        Посетители, находящиеся в группе Гости, не могут оставлять комментарии в данной новости.

        ↓ Меню




        ↓ Опрос

        Вы добавили сайт в закладки?
        Да
        Нет


        Top 10 за месяц (Фильмы)