.
Авторизация | Регистрация
Хочешь лучшие торренты? Добавь свой email!
Добавить

Торрент скачать бесплатно

» » Разрушение / Demolition (2015) HDRip торрент скачать бесплатно




    Разрушение / Demolition (2015) HDRip торрент скачать бесплатно

    Опубликовал: Админ | Дата: 8-07-2016, 04:00 | Просмотров: 231402

    Производство: США, Black Label Media, Mr. Mudd, Right of Way Films, Sidney Kimmel Entertainment
    Жанр: Драма, Комедия
    Режиссер: Жан-Марк Валле

    Актеры
    Джейк Джилленхол, Наоми Уоттс, Крис Купер, Джуда Льюис, С.Дж. Уилсон, Полли Дрэйпер, Мэлаки Клири, Дебра Монк, Хезер Линд, Уасс М. Стивенс, Блэйр Брукс, Бен Коул, Брендан Дулинг, Джеймс Колби, Альфредо Нарцисо ...

    Описание

    Когда банкир Дэвис узнал, что его жена мертва, он захотел купить шоколадный батончик в торговом автомате, но тот оказался сломан. Переживая горе, Дэвис начинает крушить дом, мебель, машину, строчить жалобы в обслуживающую торговые автоматы фирму. А в письмах он… рассказывает историю своей любви. Скоро ему отвечает Карен, менеджер компании, но сможет ли она спасти Дэвиса из эмоциональной пропасти?..

    Возраст: 18+ (зрителям, достигшим 18 лет. запрещено для детей)
    Рейтинг MPAA: R (лицам до 17 лет обязательно присутствие взрослого)
    Премьера (мир): 10 сентября 2015, ...
    Премьера (РФ): 30 июня 2016, Парадиз

    Продолжительность: 01: 40: 52
    Качество видео: HDRip
    Перевод: Профессиональный многоголосый (СПД)
    Субтитры: Отсутствуют
    Реклама: Отсутствует
    Видео: MPEG4, XviD, 720x304 (2.35: 1), 23.976 fps, 1 684 Kbps (0.321 bit/pixel)
    Аудио: AC-3, 48.0 KHz, 6 ch, 384 Kbps, CBR
    Код:

    Формат : AVI
    Формат/Информация : Audio Video Interleave
    Размер файла : 1, 46 Гбайт
    Продолжительность : 1 ч. 40 м.
    Общий поток : 2075 Кбит/сек
    Видео
    Идентификатор : 0
    Формат : MPEG-4 Visual
    Профиль формата : Advanced Simple@L5
    Параметр BVOP формата : 1
    Параметр QPel формата : Нет
    Параметр GMC формата : Без точки перехода
    Параметр матрицы формата : Выборочная
    Идентификатор кодека : XVID
    Идентификатор кодека/Подсказка : XviD
    Продолжительность : 1 ч. Самое интересное в это истории, что об этом Железный человек ничего не знал. 40 м.
    Битрейт : 1684 Кбит/сек
    Ширина : 720 пикселей
    Высота : 304 пикселя
    Соотношение сторон : 2, 35:1
    Частота кадров : 23, 976 кадра/сек
    Цветовое пространство : YUV
    Субдискретизация насыщенности : 4:2:0
    Битовая глубина : 8 бит
    Тип развёртки : Прогрессивная
    Метод сжатия : С потерями
    Бит/(Пиксели*Кадры) : 0.321
    Размер потока : 1, 19 Гбайт (81%)
    Библиотека кодирования : XviD 73
    Аудио
    Идентификатор : 1
    Формат : AC-3
    Формат/Информация : Audio Coding 3
    Расширение режима : CM (complete main)
    Параметр Endianness формата : Big
    Идентификатор кодека : 2000
    Продолжительность : 1 ч. 40 м.
    Вид битрейта : Постоянный
    Битрейт : 384 Кбит/сек
    Каналы : 6 каналов
    Расположение каналов : Front: L C R, Side: L R, LFE
    Частота : 48, 0 КГц
    Битовая глубина : 16 бит
    Метод сжатия : С потерями
    Размер потока : 277 Мбайт (19%)
    Выравнивание : Соединение по промежуткам
    Продолжительность промежутка : 64 мс. (1, 53 видеокадра)
    Время предзагрузки промежутка : 192 мс.
    Заголовок : СПД


    Скриншоты для ознакомления




    Онлайн видео Разрушение



    Разрушение/Demolition (2015) HDRip
    загрузка...
    Рейтинг →
     (голосов: 1, оценка 3/5, голосовать можно 1 раз )

    Другие торренты по теме:

  • Разрушение / Demolition (2015) WEB-DLRip
  • Разрушение / Demolition (2016)
  • Разрушение / Demolition (2015) WEB-DL [H.264 / 1080p-LQ] [EN / EN Sub]
  • Разрушение / Demolition (2015) WEB-DL [H.264 / 720p-LQ]
  • Разрушение / Demolition (2015) WEB-DL [H.264 / 1080p-LQ]
  • Разрушение / Demolition (2015) WEB-DLRip
  • Разрушение / Demolition (2015) BDRip [H.264 / 720p]
  • Разрушение / Demolition (2015) BDRip [H.264 / 1080p]


    • Комментарии (0):

      Информация

      Информация

        Посетители, находящиеся в группе Гости, не могут оставлять комментарии в данной новости.

        ↓ Меню




        ↓ Опрос

        Вы добавили сайт в закладки?
        Да
        Нет


        Top 10 за месяц (Фильмы)