.
Авторизация | Регистрация
Хочешь лучшие торренты? Добавь свой email!
Добавить

Торрент скачать бесплатно

» » Секс, наркотики и рок-н-ролл / Sex&Drugs&Rock&Roll (2016) WEB-DL [H.264 / 1080p-LQ] (сезон 2, серии 1-1 из 10) NewStudio (обновляемая) торрент скачать бесплатно




    Секс, наркотики и рок-н-ролл / Sex&Drugs&Rock&Roll (2016) WEB-DL [H.264 / 1080p-LQ] (сезон 2, серии 1-1 из 10) NewStudio (обновляемая) торрент скачать бесплатно

    Опубликовал: Админ | Дата: 8-07-2016, 04:00 | Просмотров: 75

    Производство: США
    Жанр: комедия, музыка
    Режиссер: Майкл Блиден, Дэнис Лири

    Актеры
    Дэнис Лири, Джон Корбетт, Бобби Келли, Джон Алес, Элизабет Гиллис, Элэйн Хендрикс, Джош Пэйс, Гриффин Данн, Келли Бишоп, Артуро Кастро и др.

    Описание

    Сюжет сериала рассказывает о рок-н-рольщике среднего возраста, который отчаянно хочет быть богатым и знаменитым, но до сих пор ему не удалось ни одно, ни другое.

    Продолжительность: ~00: 24: 00 серия
    Качество видео: WEB-DL
    Перевод: Многоголосый закадровый, профессиональный -NewStudio
    Вид субтитров: вшитые отключаемые (форсированные, на песни)
    Язык субтитров: русский
    Реклама: присутствуют аудио вставки рекламы
    Видео: AVC/H.264, 1916х1076 (16: 9), ~4936 Kbps
    Аудио Rus: AC-3, 6 ch, 48.0 KHz, 384 Kbps - многоголосый закадровый
    Аудио Eng: AC-3, 6 ch, 48.0 KHz, 384 Kbps - оригинал
    Код:

    SexDrugsRockRoll.s02e01.WEBDL.1080p.NewStudio.mkv
    Format : Matroska
    Format version : Version 4/Version 2
    File size : 950 MiB
    Duration : 23mn 16s
    Overall bit rate : 5 706 Kbps
    Encoded date : UTC 2016-07-05 20:26:10
    Writing application : mkvmerge v8.2.0 (\'World of Adventure\') 32bit
    Writing library : libebml v1.3.1 + libmatroska v1.4.2
    Video
    ID : 1
    Format : AVC
    Format/Info : Advanced Video Codec
    Format profile : High@L4
    Format settings, CABAC : Yes
    Format settings, ReFrames : 4 frames
    Codec ID : V_MPEG4/ISO/AVC
    Duration : 23mn 16s
    Bit rate : 4 936 Kbps
    Width : 1 916 pixels
    Height : 1 076 pixels
    Display aspect ratio : 16:9
    Frame rate mode : Constant
    Frame rate : 23.976 (23976/1000) fps
    Color space : YUV
    Chroma subsampling : 4:2:0
    Bit depth : 8 bits
    Scan type : Progressive
    Bits/(Pixel*Frame) : 0.100
    Stream size : 822 MiB (87%)
    Language : English
    Default : Yes
    Forced : No
    Color range : Limited
    Color primaries : BT.709
    Transfer characteristics : BT.709
    Matrix coefficients : BT.709
    Audio #1
    ID : 2
    Format : AC-3
    Format/Info : Audio Coding 3
    Mode extension : CM (complete main)
    Format settings, Endianness : Big
    Codec ID : A_AC3
    Duration : 23mn 16s
    Bit rate mode : Constant
    Bit rate : 384 Kbps
    Channel(s) : 6 channels
    Channel positions : Front: L C R, Side: L R, LFE
    Sampling rate : 48.0 KHz
    Frame rate : 31.250 fps (1536 spf)
    Compression mode : Lossy
    Stream size : 63.9 MiB (7%)
    Title : NewStudio.TV
    Language : Russian
    Default : Yes
    Forced : No
    Audio #2
    ID : 3
    Format : AC-3
    Format/Info : Audio Coding 3
    Mode extension : CM (complete main)
    Format settings, Endianness : Big
    Codec ID : A_AC3
    Duration : 23mn 16s
    Bit rate mode : Constant
    Bit rate : 384 Kbps
    Channel(s) : 6 channels
    Channel positions : Front: L C R, Side: L R, LFE
    Sampling rate : 48.0 KHz
    Frame rate : 31.250 fps (1536 spf)
    Compression mode : Lossy
    Stream size : 63.9 MiB (7%)
    Language : English
    Default : No
    Forced : No
    Text
    ID : 4
    Format : ASS
    Codec ID : S_TEXT/ASS
    Codec ID/Info : Advanced Sub Station Alpha
    Duration : 16mn 43s
    Bit rate : 6 bps
    Count of elements : 15
    Compression mode : Lossless
    Stream size : 823 Bytes (0%)
    Title : Forced
    Language : Russian
    Default : Yes
    Forced : No


    Скриншоты для ознакомления




    Онлайн видео Секс, наркотики и рок-н-ролл



    Секс, наркотики и рок-н-ролл/Sex&Drugs&Rock&Roll (2016) WEB-DL [H.264/1080p-LQ] (сезон 2, серии 1-1 из 10) NewStudio (обновляемая)
    загрузка...
    Рейтинг →
     (голосов: 1, оценка 3/5, голосовать можно 1 раз )

    Другие торренты по теме:

  • Секс, наркотики и рок-н-ролл / Sex&Drugs&Rock&Roll (2015) WEB-DLRip (сезон 1, серии 1 из 10) NewStudio (обновляемая) скачать через торрент бесплатно
  • Секс, наркотики и рок-н-ролл / Sex&Drugs&Rock&Roll (2015) WEB-DL [H.264 / 720p-LQ] (сезон 1, серия 1 из 10) (NewStudio) (обновляемая) скачать через торрент бесплатно
  • Секс, наркотики и рок-н-ролл / Sex&Drugs&Rock&Roll (2015) WEB-DL [H.264 / 1080p-LQ] (сезон 1, серия 1 из 10) (NewStudio) (обновляемая) скачать через торрент бесплатно
  • Секс, наркотики и рок-н-ролл / Sex&Drugs&Rock&Roll (2015) WEB-DL [H.264 / 1080p-LQ] (сезон 1, серии 1-5 из 10) BaibaKo (обновляемая) скачать через торрент бесплатно
  • Секс, наркотики и рок-н-ролл / Sex&Drugs&Rock&Roll (2016) WEB-DLRip [H.264 / 1080p-LQ] (сезон 2, серии 1-2 из 10) BaibaKo (обновляемая)


    • Комментарии (0):

      Информация

      Информация

        Посетители, находящиеся в группе Гости, не могут оставлять комментарии в данной новости.

        ↓ Меню




        ↓ Опрос

        Вы добавили сайт в закладки?
        Да
        Нет


        Top 10 за месяц (Фильмы)