.
Авторизация | Регистрация
Хочешь лучшие торренты? Добавь свой email!
Добавить

Торрент скачать бесплатно

» » Улица потрошителя / Ripper Street (2016) WEBRip WEBRip [H.264 / 720p-LQ] (сезон 4, серии 1-3 из 8) NewStudio (обновляемая) торрент скачать бесплатно




    Улица потрошителя / Ripper Street (2016) WEBRip WEBRip [H.264 / 720p-LQ] (сезон 4, серии 1-3 из 8) NewStudio (обновляемая) торрент скачать бесплатно

    Опубликовал: Админ | Дата: 8-07-2016, 04:00 | Просмотров: 60

    Производство: Великобритания, Ирландия
    Жанр: Криминал, Детектив
    Режиссер: Энди Уилсон, Том Шенклэнд, Колм МакКарти

    Актеры
    Мэттью Макфэдиен, Джером Флинн, Адам Ротенберг, Дэвид Уилмот, МайАнна Бёринг, Дэвид Доусон, Шарлин МакКенна, Клайв Расселл, Лиэнн Бест, Джонатан Барнвелл и др.

    Описание

    События данного сериала разворачиваются в Лондоне 1899 года, сразу после громких убийств, совершенных Джеком Потрошителем. Команда детективов расследует преступления, попутно стараясь успокоить панику среди жителей Ист-Энда.

    Продолжительность: ~01: 07: 00 серия (1 серия - 02: 10: 49)
    Качество видео: WEBRip
    Перевод: Многоголосый закадровый, профессиональный -NewStudio
    Реклама: присутствуют аудио и видео вставки рекламы.
    Видео: AVC/H.264, 1280х720, ~3 172 Kbps, 29.970 fps
    Аудио Rus: AC-3, 2 ch, 48.0 KHz, 192 Kbps - многоголосый закадровый
    Аудио Eng: AAC, 2 ch, 48.0 KHz, 192 Kbps - оригинал
    Код:

    Ripper.Street.s04e01.WEB.720p.NewStudio.mkv
    Format : Matroska
    Format version : Version 4/Version 2
    File size : 3.25 GiB
    Duration : 2h 10mn
    Overall bit rate : 3 558 Kbps
    Encoded date : UTC 2016-03-13 10:24:20
    Writing application : mkvmerge v8.2.0 (\'World of Adventure\') 32bit
    Writing library : libebml v1.3.1 + libmatroska v1.4.2
    Video
    ID : 1
    Format : AVC
    Format/Info : Advanced Video Codec
    Format profile :High@L3.1
    Format settings, CABAC : Yes
    Format settings, ReFrames : 4 frames
    Codec ID : V_MPEG4/ISO/AVC
    Duration : 2h 10mn
    Bit rate : 3 172 Kbps
    Width : 1 280 pixels
    Height : 720 pixels
    Display aspect ratio : 16:9
    Frame rate mode : Variable
    Frame rate : 29.970 fps
    Color space : YUV
    Chroma subsampling : 4:2:0
    Bit depth : 8 bits
    Scan type : Progressive
    Bits/(Pixel*Frame) : 0.115
    Stream size : 2.90 GiB (89%)
    Default : Yes
    Forced : No
    Audio #1
    ID : 2
    Format : AC-3
    Format/Info : Audio Coding 3
    Mode extension : CM (complete main)
    Format settings, Endianness : Big
    Codec ID : A_AC3
    Duration : 2h 10mn
    Bit rate mode : Constant
    Bit rate : 192 Kbps
    Channel(s) : 2 channels
    Channel positions : Front: L R
    Sampling rate : 48.0 KHz
    Frame rate : 31.250 fps (1536 spf)
    Compression mode : Lossy
    Stream size : 180 MiB (5%)
    Title : NewStudio.TV
    Language : Russian
    Default : Yes
    Forced : No
    Audio #2
    ID : 3
    Format : AAC
    Format/Info : Advanced Audio Codec
    Format profile : LC
    Codec ID : A_AAC
    Duration : 2h 10mn
    Bit rate : 192 Kbps
    Channel(s) : 2 channels
    Channel positions : Front: L R
    Sampling rate : 44.1 KHz
    Frame rate : 43.066 fps (1024 spf)
    Compression mode : Lossy
    Stream size : 180 MiB (5%)
    Language : English
    Default : No
    Forced : No


    Скриншоты для ознакомления




    Онлайн видео Улица потрошителя



    Улица потрошителя/Ripper Street (2016) WEBRip WEBRip [H.264/720p-LQ] (сезон 4, серии 1-3 из 8) NewStudio (обновляемая)
    загрузка...
    Рейтинг →
     (голосов: 1, оценка 3/5, голосовать можно 1 раз )

    Другие торренты по теме:

  • Улица потрошителя / Ripper Street (2014) WEBRip (сезон 3, серии 1 из 8) NewStudio (обновляемая)скачать через торрент бесплатно
  • Улица потрошителя / Ripper Street (2016) WEBRip (сезон 4, серии 1-2 из 8) NewStudio (обновляемая)
  • Улица потрошителя / Ripper Street (2016) WEB-DLRip (сезон 5, серии 1 из 6) NewStudio (обновляемая)
  • Улица потрошителя / Ripper Street (2016) WEBRip [H.264 / 720p] (сезон 5, серии 1-2 из 6) NewStudio (обновляемая)


    • Комментарии (0):

      Информация

      Информация

        Посетители, находящиеся в группе Гости, не могут оставлять комментарии в данной новости.

        ↓ Меню




        ↓ Опрос

        Вы добавили сайт в закладки?
        Да
        Нет


        Top 10 за месяц (Фильмы)