.
Авторизация | Регистрация
Хочешь лучшие торренты? Добавь свой email!
Добавить

Торрент скачать бесплатно

» » Налетчики / Marauders (2016) WEB-DL [H.264 / 1080p-LQ] [EN / EN Sub] торрент скачать бесплатно




    Налетчики / Marauders (2016) WEB-DL [H.264 / 1080p-LQ] [EN / EN Sub] торрент скачать бесплатно

    Опубликовал: Админ | Дата: 7-07-2016, 04:00 | Просмотров: 410

    Производство: Канада/4th Wall Entertainment, Emmett/Furla Films, Grindstone Entertainment Group, Lionsgate Home Entertainment
    Жанр: Боевик
    Режиссер: Стивен С. Миллер

    Актеры
    Брюс Уиллис, Кристофер Мелони, Дэйв Батиста, Эдриан Гренье, Лидия Халл, Тайлер Джон Олсон, Кристофер Роб Бауэн, Крис Хилл, Дэнни А. Абекейзер, Тексас Бэттл...

    Описание

    История об агенте ФБР, который нападает на след преступников, ограбивших банк и отдавших все украденные деньги на благотворительные нужды. Чем дальше продвигается расследование, тем больше главный герой убеждается в том, что у владельца банка имеются собственные секреты.

    Рейтинг MPAA: R (лицам до 17 лет обязательно присутствие взрослого)
    Премьера (мир): 1 июля 2016, ...
    Премьера (РФ): 11 августа 2016, MEGOGO Distribution

    Продолжительность: 01: 47: 08
    Качество видео: WEB-DL 1080p
    Перевод: Отсутствует
    Язык озвучки: Английский
    Язык субтитров: Английский
    Вид субтитров: Вшитые отключаемые
    Видео: AVC, 1908x788 (2.40: 1), 23.976 fps, 4 267 Kbps (0.118 bit/pixel)
    Аудио: AC-3, 48.0 KHz, 6 ch, 384 Kbps, CBR (English)
    Код:

    General
    Unique ID : 235002192196682005080860571448320218346 (0xB0CBC6A10B0BC2E2BF4B23526B5854EA)
    Complete name : E:VideoMarauders.2016.1080p.WEB-DL.DD5.1.H264.mkv
    Format : Matroska
    Format version : Version 4/Version 2
    File size : 3.55 GiB
    Duration : 1h 47mn
    Overall bit rate : 4 745 Kbps
    Encoded date : UTC 2016-07-01 10:14:17
    Writing application : mkvmerge v9.2.0 (\'Photograph\') 64bit
    Writing library : libebml v1.3.3 + libmatroska v1.4.4
    Video
    ID : 1
    Format : AVC
    Format/Info : Advanced Video Codec
    Format profile : High@L4
    Format settings, CABAC : Yes
    Format settings, ReFrames : 5 frames
    Codec ID : V_MPEG4/ISO/AVC
    Duration : 1h 47mn
    Bit rate : 4 267 Kbps
    Width : 1 908 pixels
    Height : 788 pixels
    Display aspect ratio : 2.40:1
    Frame rate mode : Constant
    Frame rate : 23.976 (24000/1001) fps
    Color space : YUV
    Chroma subsampling : 4:2:0
    Bit depth : 8 bits
    Scan type : Progressive
    Bits/(Pixel*Frame) : 0.118
    Stream size : 3.19 GiB (90%)
    Language : English
    Default : Yes
    Forced : No
    Color range : Limited
    Color primaries : BT.709
    Transfer characteristics : BT.709
    Matrix coefficients : BT.709
    Audio
    ID : 2
    Format : AC-3
    Format/Info : Audio Coding 3
    Mode extension : CM (complete main)
    Format settings, Endianness : Big
    Codec ID : A_AC3
    Duration : 1h 47mn
    Bit rate mode : Constant
    Bit rate : 384 Kbps
    Channel(s) : 6 channels
    Channel positions : Front: L C R, Side: L R, LFE
    Sampling rate : 48.0 KHz
    Frame rate : 31.250 fps (1536 spf)
    Compression mode : Lossy
    Stream size : 294 MiB (8%)
    Language : English
    Default : Yes
    Forced : No
    Text
    ID : 3
    Format : UTF-8
    Codec ID : S_TEXT/UTF8
    Codec ID/Info : UTF-8 Plain Text
    Language : English
    Default : Yes
    Forced : No
    Menu
    00:00:00.000 : en:1
    00:05:20.000 : en:2
    00:15:11.000 : en:3
    00:25:04.000 : en:4
    00:35:16.000 : en:5
    00:46:15.000 : en:6
    00:55:59.000 : en:7
    01:07:05.000 : en:8
    01:17:17.000 : en:9
    01:28:23.000 : en:10
    01:41:22.000 : en:11


    Скриншоты для ознакомления




    Онлайн видео Налетчики



    Налетчики/Marauders (2016) WEB-DL [H.264/1080p-LQ] [EN/EN Sub]
    загрузка...
    Рейтинг →
     (голосов: 1, оценка 3/5, голосовать можно 1 раз )

    Другие торренты по теме:

  • Налетчики / Marauders (2016) WEB-DL [H.264 / 1080p-LQ]
  • Налетчики / Marauders (2016) WEB-DLRip
  • Налетчики / Marauders (2016) WEB-DL [H.264 / 720p-LQ]
  • Налетчики / Marauders (2016) WEB-DL [1080p] ATV
  • Налетчики / Marauders (2016) WEB-DLRip [576p] iPad
  • Налетчики / Marauders (2016) AC3 5.1 [Solod]
  • Налетчики / Marauders (2016) WEB-DLRip [H264] [VO]
  • Налетчики / Marauders (2016) WEB-DLRip


    • Комментарии (0):

      Информация

      Информация

        Посетители, находящиеся в группе Гости, не могут оставлять комментарии в данной новости.

        ↓ Меню




        ↓ Опрос

        Вы добавили сайт в закладки?
        Да
        Нет


        Top 10 за месяц (Фильмы)