.
Авторизация | Регистрация
Хочешь лучшие торренты? Добавь свой email!
Добавить

Торрент скачать бесплатно

» » Тайный город / Секретный город / Secret City (2016) HDTVRip [H.264 / 720p-LQ] (сезон 1, серии 1-4 из 6) BaibaKo (обновляемая) торрент скачать бесплатно




    Тайный город / Секретный город / Secret City (2016) HDTVRip [H.264 / 720p-LQ] (сезон 1, серии 1-4 из 6) BaibaKo (обновляемая) торрент скачать бесплатно

    Опубликовал: Админ | Дата: 7-07-2016, 04:00 | Просмотров: 30

    Производство: Австралия
    Жанр: триллер
    Режиссер: Эмма Фриман

    Актеры
    Элис Частон, Алекс Димитриадес, Анна Торв, Джеки Уивер, Фердинанд Хоанг, Алекс Микич, Макс Браун, Кимие Тсукакоши, Дэймон Херриман, Джанелл МакМенамин и др.

    Описание

    Главная героиня сериала Секретный город — корреспондент Гарриет Данкли, затянутая в общественно-политическое столкновение Китая и Соединенных Штатов Америки, проводит расследование таинственного давнишнего дела, вследствие которого были осуществлены пробы заказного смертоубийства. Данкли выясняет, что в Канберре, австралийской столице, в действительности имеется определённый тайный городок, в котором влиятельные коррупционеры-госслужащие состязаются друг с дружкой в правлении.

    Релиз от: BaibaKo
    Продолжительность: ~00: 50: 00 серия
    Качество видео: HDTVRip
    Перевод: Многоголосый закадровый, профессиональный - BaibaKo
    Автор перевода: vipere
    Реклама: присутствуют аудио, видео, текстовые вставки рекламы.
    Видео: AVC/H.264, 1280x640, ~1778 Кбит/сек
    Аудио Rus: AC3, 6 каналов, 384 Кбит/сек - многоголосый закадровый
    Аудио Eng: AC3, 6 каналов, 384 Кбит/сек - оригинал
    Код:

    Общее
    Уникальный идентификатор : 251527156781246315159017615410948929759 (0xBD3A5E4960C0C17AA639605ADC2AF8DF)
    Полное имя : H:СериалыТайный город (2016) 1 сезон любимого сериалаSecret.City.s01.HDTV720p.Rus.Eng.BaibaKo.tvSecret.City.s01e01.HDTV720p.Rus.Eng.BaibaKo.tv.mkv
    Формат : Matroska
    Версия формата : Version 4/Version 2
    Размер файла : 867 Мбайт
    Продолжительность : 47 м.
    Общий поток : 2540 Кбит/сек
    Дата кодирования : UTC 2016-06-19 18:33:56
    Программа кодирования : mkvmerge v9.1.0 (\'Little Earthquakes\') 64bit
    Библиотека кодирования : libebml v1.3.3 + libmatroska v1.4.4
    Видео
    Идентификатор : 1
    Формат : AVC
    Формат/Информация : Advanced Video Codec
    Профиль формата :High@L3.1
    Параметр CABAC формата : Да
    Параметр ReFrames формата : 4 кадра
    Идентификатор кодека : V_MPEG4/ISO/AVC
    Продолжительность : 47 м.
    Битрейт : 1778 Кбит/сек
    Ширина : 1280 пикселей
    Высота : 640 пикселей
    Соотношение сторон : 2, 000
    Режим частоты кадров : Постоянный
    Частота кадров : 25, 000 кадров/сек
    Цветовое пространство : YUV
    Субдискретизация насыщенности : 4:2:0
    Битовая глубина : 8 бит
    Тип развёртки : Прогрессивная
    Бит/(Пиксели*Кадры) : 0.087
    Размер потока : 605 Мбайт (70%)
    Библиотека кодирования : x264 core 148 r2692 64f4e24
    Настройки программы : cabac=1/ref=3/deblock=1:0:0/analyse=0x3:0x113/me=hex/subme=7/psy=1/psy_rd=1.00:0.00/mixed_ref=1/me_range=16/chroma_me=1/trellis=1/8x8dct=1/cqm=0/deadzone=21, 11/fast_pskip=1/chroma_qp_offset=-2/threads=12/lookahead_threads=2/sliced_threads=0/nr=0/decimate=1/interlaced=0/bluray_compat=0/constrained_intra=0/bframes=3/b_pyramid=2/b_adapt=1/b_bias=0/direct=1/weightb=1/open_gop=0/weightp=2/keyint=250/keyint_min=25/scenecut=40/intra_refresh=0/rc_lookahead=40/rc=crf/mbtree=1/crf=18.0/qcomp=0.60/qpmin=0/qpmax=69/qpstep=4/ip_ratio=1.40/aq=1:1.00
    Default : Нет
    Forced : Нет
    Аудио #1
    Идентификатор : 2
    Формат : AC-3
    Формат/Информация : Audio Coding 3
    Расширение режима : CM (complete main)
    Параметр Endianness формата : Big
    Идентификатор кодека : A_AC3
    Продолжительность : 47 м.
    Вид битрейта : Постоянный
    Битрейт : 384 Кбит/сек
    Каналы : 6 каналов
    Расположение каналов : Front: L C R, Side: L R, LFE
    Частота : 48, 0 КГц
    Частота кадров : 31, 250 кадров/сек (1536 spf)
    Метод сжатия : С потерями
    Размер потока : 131 Мбайт (15%)
    Язык : Russian
    Default : Да
    Forced : Нет
    Аудио #2
    Идентификатор : 3
    Формат : AC-3
    Формат/Информация : Audio Coding 3
    Расширение режима : CM (complete main)
    Параметр Endianness формата : Big
    Идентификатор кодека : A_AC3
    Продолжительность : 47 м.
    Вид битрейта : Постоянный
    Битрейт : 384 Кбит/сек
    Каналы : 6 каналов
    Расположение каналов : Front: L C R, Side: L R, LFE
    Частота : 48, 0 КГц
    Частота кадров : 31, 250 кадров/сек (1536 spf)
    Метод сжатия : С потерями
    Размер потока : 131 Мбайт (15%)
    Язык : English
    Default : Нет
    Forced : Нет


    Скриншоты для ознакомления




    Онлайн видео Тайный город



    Тайный город/Секретный город/Secret City (2016) HDTVRip [H.264/720p-LQ] (сезон 1, серии 1-4 из 6) BaibaKo (обновляемая)
    загрузка...
    Рейтинг →
     (голосов: 1, оценка 3/5, голосовать можно 1 раз )

    Другие торренты по теме:

  • Тайный город / Город Тайн / Секретный город / Secret City (2016) HDTVRip (сезон 1, серии 1-2 из 6) NewStudio (обновляемая)
  • Секретный город / Тайный город / Secret City (2016) HDTV [H.264 / 720p-LQ] (сезон 1, серии 1-2 из 6) SunshineStudio (Обновляемая)
  • Тайный город / Город Тайн / Secret City (2016) HDTVRip [H.264 / 720p-LQ] (сезон 1, серии 1-2 из 6) NewStudio (обновляемая)
  • Тайный город 2 (2014) SATRip [2 сезон: 1-2 серия из 8](Обновляемая)


    • Комментарии (0):

      Информация

      Информация

        Посетители, находящиеся в группе Гости, не могут оставлять комментарии в данной новости.

        ↓ Меню




        ↓ Опрос

        Вы добавили сайт в закладки?
        Да
        Нет


        Top 10 за месяц (Фильмы)