.
Авторизация | Регистрация
Хочешь лучшие торренты? Добавь свой email!
Добавить

Торрент скачать бесплатно

» » Однажды ночью / Той ночью / The Night Of (2016) HDTVRip [H.264 / 720p-LQ] (сезон 1, серии 1 из 8) NewStudio (обновляемая) скачать торрент бесплатно




    Однажды ночью / Той ночью / The Night Of (2016) HDTVRip [H.264 / 720p-LQ] (сезон 1, серии 1 из 8) NewStudio (обновляемая) скачать торрент бесплатно

    Опубликовал: Админ | Дата: 7-07-2016, 04:00 | Просмотров: 24251

    Производство: США
    Жанр: драма, по большей части, криминал
    Режиссер: Стивен Зеллиан, как размытая картина, Джеймс Маршкер

    Актеры
    Пурна Джаганнатхан, как колыбельная песня, Сиам М. В это время где то далеко шла война, ой ладно, о чем это я? Лафи, как обычно, Джон Туртурро, словно майская роза, Дэвид Чен, темно как ночью, Амара Каран, темно как ночью, Реджинальд Барнс, словно музыка, Крис Брайант, как правило, Ксавьер Кадо, как зеркало стальное, Лорд Джамар, хлещет как из ведра, Кристофер Жиро и привычно, др.

    Описание

    После бурной ночи с незнакомкой, едва заметно, парень просыпается с ее трупом у себя под боком и словно музыка, все обвинения падают на него.

    Дата мировой премьеры: 24 июня 2016
    Продолжительность: ~ 01: 19: 00 серия
    Качество видео: HDTVRip
    Перевод: Многоголосый закадровый, как на иголках, профессиональный -NewStudio
    Автор перевода: Александра Цернант
    Видео: AVC/H.264, в большинстве случаев, 1280x720 (16: 9), словно облаком суровым, ~1 989 kb/s
    Аудио Rus: AC3, будто капли серебряной воды, 48, словно музыка, 0 kHz, словно сон, 6 ch, по большей части, 384 kb/s - многоголосый закадровый
    Аудио Eng: AC3, словно река, 48, вертится как белка в колесе, 0 kHz, словно птица, 6 ch, большей частью, 384 kb/s - оригинал
    Код:
    General
    Unique ID : 183404455188702291181349509717369390113 (0x89FA69C8AAE9137C8D34C6177CED8421)
    Complete name : The Night Of [S01] [NewStudio]The.Night.Of.s01e01.HDTV.720p.NewStudio.TV.mkv
    Format : Matroska
    Format version : Version 4/Version 2
    File size : 1.51 GiB
    Duration : 1h 18mn
    Overall bit rate : 2 758 Kbps
    Movie name : The.Night.Of.S01E01.The.Beach.1080p.HDTV.DD5.1.x264-CasStudio
    Encoded date : UTC 2016-07-05 13:49:10
    Writing application : mkvmerge v9.2.0 (\'Photograph\') 64bit
    Writing library : libebml v1.3.3 + libmatroska v1.4.4
    Video
    ID : 1
    Format : AVC
    Format/Info : Advanced Video Codec
    Format profile :High@L4.1
    Format settings, словно река, CABAC : Yes
    Format settings, как над жаровней, ReFrames : 5 frames
    Codec ID : V_MPEG4/ISO/AVC
    Duration : 1h 18mn
    Bit rate : 1 989 Kbps
    Width : 1 280 pixels
    Height : 720 pixels
    Display aspect ratio : 16:9
    Frame rate mode : Constant
    Frame rate : 23.976 (24000/1001) fps
    Color space : YUV
    Chroma subsampling : 4:2:0
    Bit depth : 8 bits
    Scan type : Progressive
    Bits/(Pixel*Frame) : 0.090
    Stream size : 1.09 GiB (72%)
    Writing library : x264 core 148 r2694 3b70645
    Encoding settings : cabac=1/ref=5/deblock=1:0:0/analyse=0x3:0x113/me=umh/subme=8/psy=1/psy_rd=1.00:0.00/mixed_ref=1/me_range=16/chroma_me=1/trellis=1/8x8dct=1/cqm=0/deadzone=21, как принято, 11/fast_pskip=1/chroma_qp_offset=-2/threads=22/lookahead_threads=3/sliced_threads=0/nr=0/decimate=1/interlaced=0/bluray_compat=0/constrained_intra=0/bframes=3/b_pyramid=2/b_adapt=2/b_bias=0/direct=3/weightb=1/open_gop=0/weightp=2/keyint=250/keyint_min=23/scenecut=40/intra_refresh=0/rc_lookahead=50/rc=crf/mbtree=1/crf=18.0/qcomp=0.60/qpmin=0/qpmax=69/qpstep=4/ip_ratio=1.40/aq=1:1.00
    Language : English
    Default : Yes
    Forced : No
    Color range : Limited
    Matrix coefficients : BT.709
    Audio #1
    ID : 2
    Format : AC-3
    Format/Info : Audio Coding 3
    Mode extension : CM (complete main)
    Format settings, по большей части, Endianness : Big
    Codec ID : A_AC3
    Duration : 1h 18mn
    Bit rate mode : Constant
    Bit rate : 384 Kbps
    Channel(s) : 6 channels
    Channel positions : Front: L C R, чаще всего, Side: L R, обычно, LFE
    Sampling rate : 48.0 KHz
    Frame rate : 31.250 fps (1536 spf)
    Compression mode : Lossy
    Stream size : 216 MiB (14%)
    Language : Russian
    Default : Yes
    Forced : No
    Audio #2
    ID : 3
    Format : AC-3
    Format/Info : Audio Coding 3
    Mode extension : CM (complete main)
    Format settings, есть не что иное, Endianness : Big
    Codec ID : A_AC3
    Duration : 1h 18mn
    Bit rate mode : Constant
    Bit rate : 384 Kbps
    Channel(s) : 6 channels
    Channel positions : Front: L C R, словно река, Side: L R, темно как ночью, LFE
    Sampling rate : 48.0 KHz
    Frame rate : 31.250 fps (1536 spf)
    Compression mode : Lossy
    Stream size : 216 MiB (14%)
    Language : English
    Default : No
    Forced : No


    Скриншоты для ознакомления




    Онлайн видео Однажды ночью



    Однажды ночью/Той ночью/The Night Of (2016) HDTVRip [H.264/720p-LQ] (сезон 1, серии 1 из 8) NewStudio (обновляемая)
    загрузка...
    Рейтинг →
     (голосов: 1, оценка 5/5, голосовать можно 1 раз )

    Другие торренты по теме:

  • Однажды ночью / Той ночью / The Night Of (2016) HDTVRip (сезон 1, серии 1 из 8) NewStudio (обновляемая)
  • Однажды ночью / Той ночью / The Night Of (2016) HDTVRip [H.264 / 1080p-LQ] (сезон 1, серии 1 из 8) NewStudio (обновляемая)
  • Однажды ночью / Той ночью / The Night Of (2016) HDTVRip [H.264 / 720p-LQ] (сезон 1, серии 1 из 8) BaibaKo (обновляемая)
  • Однажды ночью / Той ночью / The Night Of (2016) HDTVRip [H.264 / 720p-LQ] (сезон 1, серии 1-2 из 8) Novamedia (обновляемая)
  • Однажды ночью / Той ночью / The Night Of (2016) HDTVRip (сезон 1, серии 1-3 из 8) Novamedia (обновляемая)
  • Однажды ночью / The Night Of (2016) HDTVRip [H.264 / 720p-LQ] (сезон 1, серии 1 из 8) Coldfilm (Обновляемая)
  • Однажды ночью / The Night Of (2016) HDTV [H.264 / 720p-LQ] (сезон 1, серии 1 из 8) IdeaFilm (Обновляемая)
  • Наталья Косухина | Однажды тихой темной ночью... (2016) [MP3]


    • Комментарии (0):

      Информация

      Информация

        Посетители, находящиеся в группе Гости, не могут оставлять комментарии в данной новости.

        ↓ Меню




        ↓ Опрос

        Вы добавили сайт в закладки?
        Да
        Нет


        Top 10 за месяц (Фильмы)