.
Авторизация | Регистрация
Хочешь лучшие торренты? Добавь свой email!
Добавить

Торрент скачать бесплатно

» » Синг Стрит / Sing Street (2016) BDRip [H.264 / 1080p] [EN / EN Sub] торрент скачать бесплатно




    Синг Стрит / Sing Street (2016) BDRip [H.264 / 1080p] [EN / EN Sub] торрент скачать бесплатно

    Опубликовал: Админ | Дата: 6-07-2016, 04:00 | Просмотров: 455

    Производство: Ирландия, Великобритания, США/Cosmo Films, Distressed Films, FilmNation Entertainment, FilmWave, Likely Story, PalmStar Media
    Жанр: Драма, Мелодрама, Комедия, Музыкальный
    Режиссер: Джон Карни

    Актеры
    Эйдан Гиллен, Мария Дойл Кеннеди, Джек Рейнор, Люси Бойнтон, Келли Торнтон, Лидия МакГиннесс, Кайл Брэдли Дональдсон, Фердия Уолш-Пило, Марк МакКенна, Падриг Дж. Данн, ..

    Описание

    Музыкальная комедия о мальчишке из Дублина, которого из-за финансовых проблем в семье переводят из дорогой частной школы в бесплатную, зато с хорошей репутацией. Выясняется, что это христианская школа с очень консервативными правилами и задиристыми учениками. Нет худа без добра – там он заводит новых друзей и по воле случая знакомится с девушкой, которая словно сошла с обложек музыкальных журналов. Дело происходит в середине 80-х, в моде группы The Cure, A-HA, Duran Duran, The Clash, чья эстетика не очень приветствуется на севере Ирландии. Но ведь так хочется играть современную музыку, поэтому ребята создают свою группу и начинают репетировать у одного из них дома. Вскоре они перебираются в Лондон, где их ждет новая жизнь.

    Рейтинг MPAA: PG-13 (детям до 13 лет просмотр нежелателен)
    Премьера (мир): 24 января 2016, ...
    Продолжительность: 01: 45: 25
    Качество видео: BDRip 1080p
    Перевод: Отсутствует
    Язык озвучки: Английский
    Язык субтитров: Английский
    Вид субтитров: Отдельным файлом
    Видео: AVC, 1920x808 (2.35: 1), 23.976 fps, 8 882 Kbps (0.239 bit/pixel)
    Аудио: DTS, 48.0 KHz, 6 ch, 1 510 Kbps, CBR (English)
    Код:

    General
    Unique ID : 232859100536817918572640718037474793986 (0xAF2F080D6A3019F2BABBB912F70EDA02)
    Complete name : E:VideoSing.Street.2016.1080p.BluRay.x264Sing.Street.2016.1080p.BluRay.x264.mkv
    Format : Matroska
    Format version : Version 4/Version 2
    File size : 7.65 GiB
    Duration : 1h 45mn
    Overall bit rate : 10.4 Mbps
    Encoded date : UTC 2016-07-04 16:46:58
    Writing application : mkvmerge v8.3.0 (\'Over the Horizon\') 64bit
    Writing library : libebml v1.3.1 + libmatroska v1.4.2
    Video
    ID : 1
    Format : AVC
    Format/Info : Advanced Video Codec
    Format profile :High@L4.1
    Format settings, CABAC : Yes
    Format settings, ReFrames : 5 frames
    Codec ID : V_MPEG4/ISO/AVC
    Duration : 1h 45mn
    Bit rate : 8 882 Kbps
    Width : 1 920 pixels
    Height : 808 pixels
    Display aspect ratio : 2.40:1
    Frame rate mode : Constant
    Frame rate : 23.976 fps
    Color space : YUV
    Chroma subsampling : 4:2:0
    Bit depth : 8 bits
    Scan type : Progressive
    Bits/(Pixel*Frame) : 0.239
    Stream size : 6.54 GiB (85%)
    Writing library : x264 core 148 r2692 64f4e24
    Encoding settings : cabac=1/ref=5/deblock=1:0:0/analyse=0x3:0x133/me=umh/subme=7/psy=1/psy_rd=1.00:0.00/mixed_ref=1/me_range=16/chroma_me=1/trellis=1/8x8dct=1/cqm=0/deadzone=21, 11/fast_pskip=0/chroma_qp_offset=-2/threads=18/lookahead_threads=3/sliced_threads=0/nr=0/decimate=1/interlaced=0/bluray_compat=0/constrained_intra=0/bframes=3/b_pyramid=2/b_adapt=1/b_bias=0/direct=1/weightb=1/open_gop=0/weightp=2/keyint=250/keyint_min=23/scenecut=40/intra_refresh=0/rc_lookahead=40/rc=2pass/mbtree=1/bitrate=8882/ratetol=1.0/qcomp=0.60/qpmin=0/qpmax=69/qpstep=4/cplxblur=20.0/qblur=0.5/ip_ratio=1.40/aq=1:1.00
    Language : English
    Default : Yes
    Forced : No
    Audio
    ID : 2
    Format : DTS
    Format/Info : Digital Theater Systems
    Mode : 16
    Format settings, Endianness : Big
    Codec ID : A_DTS
    Duration : 1h 45mn
    Bit rate mode : Constant
    Bit rate : 1 509 Kbps
    Channel(s) : 6 channels
    Channel positions : Front: L C R, Side: L R, LFE
    Sampling rate : 48.0 KHz
    Frame rate : 93.750 fps (512 spf)
    Bit depth : 24 bits
    Compression mode : Lossy
    Stream size : 1.11 GiB (15%)
    Language : English
    Default : Yes
    Forced : No
    Menu
    00:00:00.000 : en:00:00:00.000
    00:05:00.967 : en:00:05:00.967
    00:09:40.747 : en:00:09:40.747
    00:14:58.314 : en:00:14:58.314
    00:20:49.707 : en:00:20:49.707
    00:26:50.776 : en:00:26:50.776
    00:32:27.279 : en:00:32:27.279
    00:36:50.583 : en:00:36:50.583
    00:43:37.782 : en:00:43:37.782
    00:49:09.321 : en:00:49:09.321
    00:55:03.050 : en:00:55:03.050
    01:00:29.459 : en:01:00:29.459
    01:04:38.625 : en:01:04:38.625
    01:08:57.508 : en:01:08:57.508
    01:14:55.783 : en:01:14:55.783
    01:20:44.006 : en:01:20:44.006
    01:27:05.554 : en:01:27:05.554
    01:31:35.907 : en:01:31:35.907
    01:36:47.010 : en:01:36:47.010
    01:41:17.154 : en:01:41:17.154


    Скриншоты для ознакомления




    Онлайн видео Синг Стрит



    Синг Стрит/Sing Street (2016) BDRip [H.264/1080p] [EN/EN Sub]
    загрузка...
    Рейтинг →
     (голосов: 1, оценка 4/5, голосовать можно 1 раз )

    Другие торренты по теме:

  • Синг Стрит / Sing Street (2016) BDRemux [H.264 / 1080p] [EN / EN, Sp Sub]
  • Синг Стрит / Sing Street (2016) HDRip [H.264 / 1080p-LQ] [EN / RU Sub]
  • Синг Стрит / Sing Street (2016) BDRip [H.264 / 1080р]
  • Синг Стрит / Sing Street (2016) BDRip [H.264 / 720р]


    • Комментарии (0):

      Информация

      Информация

        Посетители, находящиеся в группе Гости, не могут оставлять комментарии в данной новости.

        ↓ Меню




        ↓ Опрос

        Вы добавили сайт в закладки?
        Да
        Нет


        Top 10 за месяц (Фильмы)